[neoDESU] Onimai: I'm Now Your Sister! [Season 1] [BD 1080p x265 HEVC OPUS] Oniichan wa Oshimai!

Category:
Date:
2023-06-26 15:17 UTC
Submitter:
Seeders:
16
Information:
Leechers:
2
File size:
2.8 GiB
Completed:
1096
Info hash:
467a989c656eb1e479a5f1f204e0b9b66c7ed9ed
![](https://i.lensdump.com/i/6BKULK.png) *Come hang out in **[Discord](https://discord.gg/47Q7FdB54e)*** #### **[Onimai: I'm Now Your Sister! [Season 1]](https://myanimelist.net/anime/51678/Oniichan_wa_Oshimai)** ▶️ **[Trailer](https://www.youtube.com/watch?v=DxlzZgMeNr4)** --- **Notes:** . Inserted OPED into earlier episodes, where missing --- **Synopsis** Self-professed "home security guard" Mahiro Oyama has not left his home in years, secluding himself in his room playing erotic visual novels. This depraved lifestyle causes his prodigious sister, Mihari, to worry about his well-being. In hopes of solving this problem, she devises a plan to rehabilitate him back to normalcy. The first part of Mihari's plan is to concoct a medicine that changes her brother's biological constitution into a bona fide female, much to Mahiro's vehement dismay. Stuck in this predicament, Mahiro has no choice but to live out his life as a cute girl until the effect wears off—if it ever does. ![](https://i.imgur.com/sD5mLUp.png) --- **Source** 🗃️ Video and JPN Audio (JPN BDMV): **[Noah]** 🗃️ Subtitles: **[[Okay-Subs]](https://nyaa.si/view/1654825)** 💬 *Subtitles Info: [Okay-Subs]* *Thank you all for making this possible <3* --- **Media Info** ``` General Unique ID : 257790785018572204237294811583213395701 (0xC1F0B300702C6CFB48B91208582EDEF5) Complete name : Onimai - I'm Now Your Sister! - S01E01.mkv Format : Matroska Format version : Version 4 File size : 230 MiB Duration : 23 min 41 s Overall bit rate : 1 357 kb/s Encoded date : UTC 2023-06-25 20:51:54 Writing application : mkvmerge v72.0.0 ('Minuano (Six-eight)') 64-bit Writing library : libebml v1.4.4 + libmatroska v1.7.1 / Lavf60.3.100 Attachments : DANIELBLACK.TTF / DENNEMARKER.TTF / ROCKOULTRAFLF-BOLD.TTF / arialbd.ttf / BADHANDWRITING7.2.TTF / comic.ttf / GandhiSans-BoldItalic_0.otf / GandhiSans-Bold_0.otf / GENTIUMBASIC.TTF / HAPPYHELL.TTF / HAPPYSANS.TTF / HAVENTSLEPTINTWODAYSSHADOW.TTF / TABORHANDWRITING.TTF / times.ttf / trebucbd.ttf Video ID : 1 Format : HEVC Format/Info : High Efficiency Video Coding Format profile : Main 10@L4@High Codec ID : V_MPEGH/ISO/HEVC Duration : 23 min 41 s Bit rate : 1 210 kb/s Width : 1 920 pixels Height : 1 080 pixels Display aspect ratio : 16:9 Frame rate mode : Constant Frame rate : 23.976 (24000/1001) FPS Color space : YUV Chroma subsampling : 4:2:0 Bit depth : 10 bits Bits/(Pixel*Frame) : 0.024 Stream size : 205 MiB (89%) Writing library : x265 3.5+37+12-4e46995bc:[Windows][MSVC 1931][64 bit] 10bit Encoding settings : cpuid=1111039 / frame-threads=5 / numa-pools=32 / wpp / no-pmode / no-pme / no-psnr / no-ssim / log-level=2 / input-csp=1 / input-res=1920x1080 / interlace=0 / total-frames=136 / level-idc=40 / high-tier=1 / uhd-bd=0 / ref=5 / no-allow-non-conformance / no-repeat-headers / annexb / no-aud / no-eob / no-eos / no-hrd / info / hash=0 / no-temporal-layers / open-gop / min-keyint=23 / keyint=250 / gop-lookahead=0 / bframes=16 / b-adapt=2 / b-pyramid / bframe-bias=0 / rc-lookahead=120 / lookahead-slices=4 / scenecut=40 / no-hist-scenecut / radl=0 / no-splice / no-intra-refresh / ctu=64 / min-cu-size=8 / rect / no-amp / max-tu-size=32 / tu-inter-depth=1 / tu-intra-depth=1 / limit-tu=0 / rdoq-level=1 / dynamic-rd=0.00 / no-ssim-rd / signhide / no-tskip / nr-intra=0 / nr-inter=0 / no-constrained-intra / no-strong-intra-smoothing / max-merge=3 / limit-refs=3 / limit-modes / me=3 / subme=3 / merange=57 / temporal-mvp / no-frame-dup / no-hme / weightp / no-weightb / no-analyze-src-pics / deblock=-1:-1 / no-sao / no-sao-non-deblock / rd=4 / selective-sao=0 / no-early-skip / rskip / no-fast-intra / no-tskip-fast / no-cu-lossless / no-b-intra / no-splitrd-skip / rdpenalty=0 / psy-rd=1.50 / psy-rdoq=2.00 / no-rd-refine / no-lossless / cbqpoffs=0 / crqpoffs=0 / rc=crf / crf=22.0 / qcomp=0.60 / qpstep=4 / stats-write=0 / stats-read=0 / vbv-maxrate=30000 / vbv-bufsize=30000 / vbv-init=0.9 / min-vbv-fullness=50.0 / max-vbv-fullness=80.0 / crf-max=0.0 / crf-min=0.0 / ipratio=1.40 / pbratio=1.30 / aq-mode=3 / aq-strength=0.80 / aq-bias-strength=1.00 / cutree / zone-count=0 / no-strict-cbr / qg-size=32 / no-rc-grain / qpmax=69 / qpmin=0 / no-const-vbv / sar=0 / overscan=0 / videoformat=5 / range=0 / colorprim=2 / transfer=2 / colormatrix=2 / chromaloc=0 / display-window=0 / cll=0,0 / min-luma=0 / max-luma=1023 / log2-max-poc-lsb=8 / vui-timing-info / vui-hrd-info / slices=1 / no-opt-qp-pps / no-opt-ref-list-length-pps / no-multi-pass-opt-rps / scenecut-bias=0.05 / hist-threshold=0.03 / no-opt-cu-delta-qp / no-aq-motion / no-hdr10 / no-hdr10-opt / no-dhdr10-opt / no-idr-recovery-sei / analysis-reuse-level=0 / analysis-save-reuse-level=0 / analysis-load-reuse-level=0 / scale-factor=0 / refine-intra=0 / refine-inter=0 / refine-mv=1 / refine-ctu-distortion=0 / no-limit-sao / ctu-info=0 / no-lowpass-dct / refine-analysis-type=0 / copy-pic=1 / max-ausize-factor=1.0 / no-dynamic-refine / no-single-sei / no-hevc-aq / no-svt / no-field / qp-adaptation-range=1.00 / scenecut-aware-qp=0conformance-window-offsets / right=0 / bottom=0 / decoder-max-rate=0 / no-vbv-live-multi-pass Default : Yes Forced : No Audio ID : 2 Format : Opus Codec ID : A_OPUS Duration : 23 min 41 s Bit rate : 123 kb/s Channel(s) : 2 channels Channel layout : L R Sampling rate : 48.0 kHz Frame rate : 50.000 FPS (960 SPF) Bit depth : 32 bits Compression mode : Lossy Stream size : 20.9 MiB (9%) Title : Japanese Writing library : Lavc60.3.100 libopus Language : Japanese Default : Yes Forced : No Text ID : 3 Format : ASS Codec ID : S_TEXT/ASS Codec ID/Info : Advanced Sub Station Alpha Duration : 23 min 9 s Bit rate : 1 712 b/s Frame rate : 0.952 FPS Count of elements : 1323 Compression mode : Lossless Stream size : 290 KiB (0%) Title : Dialogue Language : English Default : Yes Forced : No Menu 00:00:00.000 : :Intro 00:05:10.960 : :OP 00:06:40.960 : :Episode 00:22:05.930 : :ED 00:23:35.940 : :Preview ```

File list

  • [neoDESU] Onimai - I'm Now Your Sister! [Season 1] [BD 1080p x265 HEVC OPUS]
    • Onimai - I'm Now Your Sister! - S01E01.mkv (230.0 MiB)
    • Onimai - I'm Now Your Sister! - S01E02.mkv (256.5 MiB)
    • Onimai - I'm Now Your Sister! - S01E03.mkv (223.3 MiB)
    • Onimai - I'm Now Your Sister! - S01E04.mkv (268.7 MiB)
    • Onimai - I'm Now Your Sister! - S01E05.mkv (234.5 MiB)
    • Onimai - I'm Now Your Sister! - S01E06.mkv (244.6 MiB)
    • Onimai - I'm Now Your Sister! - S01E07.mkv (235.6 MiB)
    • Onimai - I'm Now Your Sister! - S01E08.mkv (221.6 MiB)
    • Onimai - I'm Now Your Sister! - S01E09.mkv (235.1 MiB)
    • Onimai - I'm Now Your Sister! - S01E10.mkv (246.4 MiB)
    • Onimai - I'm Now Your Sister! - S01E11.mkv (228.2 MiB)
    • Onimai - I'm Now Your Sister! - S01E12.mkv (211.8 MiB)
just curious but whats the purpose of shrinking anime?
@Nokou Some people don't care that much about video fidelity and they want smaller video. Good enough of a reason. Not for me, but it appeals to a lot of people
@Nokou Personally I can't tell a difference in video quality (or near enough that it doesn't matter to me) when it's a good encode and it usually makes a big difference when it comes to hard drive space
>Give me back my balls
Jesse we need to cook the balls
Thank you good sir!
What is this goddamn fucking pile of steaming shit? You totally ruined it! Somebody needs to do a proper bd remux of it.