[neoDESU] Uzaki-chan Wants to Hang Out! [Season 2] [BD 1080p x265 HEVC AAC] [Dual Audio] Uzaki-chan wa Asobitai! Double

Category:
Date:
2023-06-22 16:17 UTC
Submitter:
Seeders:
17
Information:
Leechers:
2
File size:
3.3 GiB
Completed:
1050
Info hash:
041811e6e2728695842d3df83246f19a9948aba5
![](https://i.lensdump.com/i/6BKULK.png) *Come hang out in **[Discord](https://discord.gg/47Q7FdB54e)*** #### **[Uzaki-chan Wants to Hang Out! [Season 2]](https://myanimelist.net/anime/42962/Uzaki-chan_wa_Asobitai_Double)** ▶️ **[Trailer](https://www.youtube.com/watch?v=T5gJ9Xt7skM)** --- **Notes:** . Added two missing dialogue lines which got added in the BD version . Resampled script . Restyled script and changed fonts . Created styled OP & ED . Created TS for recurring signs . Created chapters --- **Related Uploads:** ▶️ **[Season 1](https://nyaa.si/view/1325920)** --- **Synopsis** During the summer holidays, energetic Hana Uzaki spent most of her time accompanying her lonesome upperclassman, Shinichi Sakurai. Now that school has resumed, Uzaki's teasing continues to ramp up, much to Sakurai's constant annoyance. Nevertheless, no amount of ridicule can damage the pair's relationship—which only seems to be getting better as their college days fly by! ![](https://i.imgur.com/QD7vTIg.png) --- **Language Options** I included two simple scripts that you can apply to these files to do the following (Windows only): 1. Make [Single Audio] Japanese: Throws out *English audio* and *Signs&Songs subtitles* tracks 2. Make [Single Audio] English: Throws out *Japanese audio* and *Dialogue subtitles* tracks To apply these put all the video files into the *Language Options* folder and run the .bat file. *Don't combine them and only use them once together with the base files.* --- **Source** 🗃️ Video and JPN Audio (JPN BDMV): **[[KoushinRip]](https://nyaa.si/view/1640336)** 🗃️ ENG Audio (WEB): **[[Yameii]](https://nyaa.si/view/1591689)** 🗃️ Subtitles: **[[SubsPlease]](https://nyaa.si/view/1661708)** 💬 *Subtitles Info: [SubsPlease] Base [Me] Edits, see notes* *Thank you all for making this possible <3* --- **Media Info** 🆔 **[Full Mediainfo incl. Encoder Settings](https://pastebin.com/LuP0AcHf)** ``` General Unique ID : 60359862836773600530090926385653430624 (0x2D68E300953B1E1A84192EB97E9D3960) Complete name : Uzaki-chan Wants to Hang Out! - S02E01.mkv Format : Matroska Format version : Version 4 File size : 285 MiB Duration : 23 min 43 s Overall bit rate : 1 678 kb/s Encoded date : UTC 2023-06-22 13:01:15 Writing application : mkvmerge v72.0.0 ('Minuano (Six-eight)') 64-bit Writing library : libebml v1.4.4 + libmatroska v1.7.1 / Lavf60.3.100 Attachments : Roboto-Medium.ttf / CRONOSPRO-BOLD.OTF / CRONOSPRO-BOLDIT.OTF / MADE Tommy Soft Bold PERSONAL USE.otf / Ourland.otf / Roboto-Medium.ttf / Roboto-MediumItalic.ttf / arial.ttf / arialbd.ttf / comic.ttf / comicbd.ttf / times.ttf / timesbd.ttf / trebuc.ttf / trebucbd.ttf / verdana.ttf / verdanab.ttf / CONSOLA.TTF / CONSOLAB.TTF Video ID : 1 Format : HEVC Format/Info : High Efficiency Video Coding Format profile : Main 10@L4@High Codec ID : V_MPEGH/ISO/HEVC Duration : 23 min 42 s Bit rate : 1 347 kb/s Width : 1 920 pixels Height : 1 080 pixels Display aspect ratio : 16:9 Frame rate mode : Constant Frame rate : 23.976 (24000/1001) FPS Color space : YUV Chroma subsampling : 4:2:0 (Type 0) Bit depth : 10 bits Bits/(Pixel*Frame) : 0.027 Stream size : 228 MiB (80%) Writing library : x265 3.5+1-f0c1022b6:[Windows][GCC 10.2.0][64 bit] 10bit Encoding settings : <Check Link Above> Default : Yes Forced : No Color range : Limited Color primaries : BT.709 Transfer characteristics : BT.709 Matrix coefficients : BT.709 Audio #1 ID : 2 Format : AAC LC Format/Info : Advanced Audio Codec Low Complexity Codec ID : A_AAC-2 Duration : 23 min 41 s Bit rate : 164 kb/s Channel(s) : 2 channels Channel layout : L R Sampling rate : 48.0 kHz Frame rate : 46.875 FPS (1024 SPF) Compression mode : Lossy Stream size : 27.8 MiB (10%) Title : English Writing library : Lavc60.3.100 aac Language : English Default : Yes Forced : No Audio #2 ID : 3 Format : AAC LC Format/Info : Advanced Audio Codec Low Complexity Codec ID : A_AAC-2 Duration : 23 min 42 s Bit rate : 125 kb/s Channel(s) : 2 channels Channel layout : L R Sampling rate : 48.0 kHz Frame rate : 46.875 FPS (1024 SPF) Compression mode : Lossy Stream size : 21.3 MiB (7%) Title : Japanese Language : Japanese Default : No Forced : No Text #1 ID : 4 Format : ASS Codec ID : S_TEXT/ASS Codec ID/Info : Advanced Sub Station Alpha Duration : 21 min 45 s Bit rate : 210 b/s Frame rate : 0.283 FPS Count of elements : 369 Compression mode : Lossless Stream size : 33.5 KiB (0%) Title : Signs & Songs Writing library : Lavc60.3.100 ssa Language : English Default : No Forced : Yes Text #2 ID : 5 Format : ASS Codec ID : S_TEXT/ASS Codec ID/Info : Advanced Sub Station Alpha Duration : 23 min 26 s Bit rate : 320 b/s Frame rate : 0.511 FPS Count of elements : 719 Compression mode : Lossless Stream size : 55.0 KiB (0%) Title : Dialogue Writing library : Lavc60.3.100 ssa Language : English Default : Yes Forced : No Menu 00:00:00.000 : :Intro 00:01:58.010 : :OP 00:03:27.980 : :Episode 00:22:05.970 : :ED 00:23:35.980 : :Preview ```

File list

  • [neoDESU] Uzaki-chan Wants to Hang Out! [Season 2] [BD 1080p x265 HEVC AAC] [Dual Audio]
    • Language Options
      • 1. Make [Single Audio] English.bat (254 Bytes)
      • 2. Make [Single Audio] Japanese.bat (254 Bytes)
      • mkvmerge.exe (9.6 MiB)
      • readme.txt (511 Bytes)
    • Uzaki-chan Wants to Hang Out! - S02E01.mkv (284.8 MiB)
    • Uzaki-chan Wants to Hang Out! - S02E02.mkv (331.9 MiB)
    • Uzaki-chan Wants to Hang Out! - S02E03.mkv (242.6 MiB)
    • Uzaki-chan Wants to Hang Out! - S02E04.mkv (259.0 MiB)
    • Uzaki-chan Wants to Hang Out! - S02E05.mkv (237.8 MiB)
    • Uzaki-chan Wants to Hang Out! - S02E06.mkv (243.8 MiB)
    • Uzaki-chan Wants to Hang Out! - S02E07.mkv (245.6 MiB)
    • Uzaki-chan Wants to Hang Out! - S02E08.mkv (265.1 MiB)
    • Uzaki-chan Wants to Hang Out! - S02E09.mkv (307.4 MiB)
    • Uzaki-chan Wants to Hang Out! - S02E10.mkv (241.6 MiB)
    • Uzaki-chan Wants to Hang Out! - S02E11.mkv (262.8 MiB)
    • Uzaki-chan Wants to Hang Out! - S02E12.mkv (232.7 MiB)
    • Uzaki-chan Wants to Hang Out! - S02E13.mkv (249.5 MiB)