Horimiya.S01.1080p.BluRay.10-Bit.Dual-Audio.FLAC2.0.x265-YURASUKA

Category:
Date:
2023-06-17 04:20 UTC
Submitter:
Seeders:
12
Information:
Leechers:
0
File size:
9.2 GiB
Completed:
717
Info hash:
b3cc4681265f17e1378601f1145a951874037df0
Horimiya Season 1 (2021) A/V Source: [TTGA@Nyaa](https://nyaa.si/view/1439010) (JPBD) English Audio: [iAHD@Nyaa](https://nyaa.si/view/1638445) (USBD) Subtitles + Chapters: [Bunny-Apocalypse@Nyaa](https://nyaa.si/view/1618470) [GSK_kun] [Encode Comparison](https://slow.pics/c/YiuV0YWI) ``` Complete name : Horimiya.S01E13.1080p.BluRay.10-Bit.Dual-Audio.FLAC2.0.x265-YURASUKA.mkv Format : Matroska Format version : Version 4 File size : 926 MiB Duration : 23 min 45 s Overall bit rate mode : Variable Overall bit rate : 5 454 kb/s Frame rate : 23.976 FPS Movie name : Horimiya - S01E13 - YURASUKA Encoded date : 2023-06-16 23:13:24 UTC Writing application : mkvmerge v76.0 ('Celebration') 64-bit Writing library : libebml v1.4.4 + libmatroska v1.7.1 Attachments : [...] Video ID : 1 Format : HEVC Format/Info : High Efficiency Video Coding Format profile : Main 10@L5@Main Codec ID : V_MPEGH/ISO/HEVC Duration : 23 min 45 s Bit rate : 4 045 kb/s Width : 1 920 pixels Height : 1 080 pixels Display aspect ratio : 16:9 Frame rate mode : Constant Frame rate : 23.976 (24000/1001) FPS Color space : YUV Chroma subsampling : 4:2:0 Bit depth : 10 bits Bits/(Pixel*Frame) : 0.081 Stream size : 687 MiB (74%) Title : YURASUKA 1080p x265 Writing library : x265 3.5:[Linux][GCC 11.2.0][64 bit] 10bit Encoding settings : cpuid=1111039 / frame-threads=4 / numa-pools=24 / wpp / no-pmode / no-pme / no-psnr / no-ssim / log-level=2 / input-csp=1 / input-res=1920x1080 / interlace=0 / total-frames=0 / level-idc=0 / high-tier=1 / uhd-bd=0 / ref=6 / no-allow-non-conformance / no-repeat-headers / annexb / no-aud / no-hrd / info / hash=0 / no-temporal-layers / open-gop / min-keyint=1 / keyint=360 / gop-lookahead=0 / bframes=16 / b-adapt=2 / b-pyramid / bframe-bias=0 / rc-lookahead=72 / lookahead-slices=4 / scenecut=40 / hist-scenecut=0 / radl=0 / no-splice / no-intra-refresh / ctu=32 / min-cu-size=8 / rect / amp / max-tu-size=32 / tu-inter-depth=4 / tu-intra-depth=4 / limit-tu=0 / rdoq-level=2 / dynamic-rd=4.00 / no-ssim-rd / signhide / tskip / nr-intra=0 / nr-inter=0 / no-constrained-intra / strong-intra-smoothing / max-merge=3 / limit-refs=3 / limit-modes / me=3 / subme=7 / merange=57 / temporal-mvp / no-frame-dup / no-hme / weightp / weightb / no-analyze-src-pics / deblock=0:0 / no-sao / no-sao-non-deblock / rd=4 / selective-sao=0 / no-early-skip / rskip / no-fast-intra / no-tskip-fast / no-cu-lossless / b-intra / no-splitrd-skip / rdpenalty=0 / psy-rd=2.00 / psy-rdoq=2.00 / no-rd-refine / no-lossless / cbqpoffs=0 / crqpoffs=0 / rc=crf / crf=16.0 / qcomp=0.72 / qpstep=4 / stats-write=0 / stats-read=0 / vbv-maxrate=20000 / vbv-bufsize=20000 / vbv-init=0.9 / min-vbv-fullness=50.0 / max-vbv-fullness=80.0 / crf-max=0.0 / crf-min=0.0 / ipratio=1.40 / pbratio=1.30 / aq-mode=3 / aq-strength=0.85 / cutree / zone-count=0 / no-strict-cbr / qg-size=32 / no-rc-grain / qpmax=69 / qpmin=0 / no-const-vbv / sar=0 / overscan=0 / videoformat=5 / range=0 / colorprim=1 / transfer=1 / colormatrix=1 / chromaloc=0 / display-window=0 / cll=0,0 / min-luma=0 / max-luma=1023 / log2-max-poc-lsb=8 / vui-timing-info / vui-hrd-info / slices=1 / no-opt-qp-pps / no-opt-ref-list-length-pps / no-multi-pass-opt-rps / scenecut-bias=0.05 / hist-threshold=0.03 / no-opt-cu-delta-qp / no-aq-motion / no-hdr10 / no-hdr10-opt / no-dhdr10-opt / no-idr-recovery-sei / analysis-reuse-level=0 / analysis-save-reuse-level=0 / analysis-load-reuse-level=0 / scale-factor=0 / refine-intra=0 / refine-inter=0 / refine-mv=1 / refine-ctu-distortion=0 / no-limit-sao / ctu-info=0 / no-lowpass-dct / refine-analysis-type=0 / copy-pic=1 / max-ausize-factor=1.0 / no-dynamic-refine / no-single-sei / no-hevc-aq / no-svt / no-field / qp-adaptation-range=1.00 / scenecut-aware-qp=0conformance-window-offsets / right=0 / bottom=0 / decoder-max-rate=0 / no-vbv-live-multi-pass Language : Japanese Default : Yes Forced : No Color range : Limited Color primaries : BT.709 Transfer characteristics : BT.709 Matrix coefficients : BT.709 Audio #1 ID : 2 Format : FLAC Format/Info : Free Lossless Audio Codec Codec ID : A_FLAC Duration : 23 min 45 s Bit rate mode : Variable Bit rate : 590 kb/s Channel(s) : 2 channels Channel layout : L R Sampling rate : 48.0 kHz Frame rate : 10.417 FPS (4608 SPF) Bit depth : 16 bits Compression mode : Lossless Stream size : 100 MiB (11%) Title : English FLAC 2.0 Writing library : Lavf60.3.100 Language : English Default : Yes Forced : No MD5 of the unencoded content : E242EEB1CCA61D09C92B6C3BC012E6C8 Audio #2 ID : 3 Format : FLAC Format/Info : Free Lossless Audio Codec Codec ID : A_FLAC Duration : 23 min 45 s Bit rate mode : Variable Bit rate : 588 kb/s Channel(s) : 2 channels Channel layout : L R Sampling rate : 48.0 kHz Frame rate : 10.417 FPS (4608 SPF) Bit depth : 16 bits Compression mode : Lossless Stream size : 100.0 MiB (11%) Title : Japanese FLAC 2.0 Writing library : Lavf60.3.100 Language : Japanese Default : No Forced : No MD5 of the unencoded content : 986CB2D9F2E99BC44028F19A75C85B14 Text #1 ID : 4 Format : ASS Codec ID : S_TEXT/ASS Codec ID/Info : Advanced Sub Station Alpha Duration : 22 min 29 s Bit rate : 30.7 kb/s Frame rate : 19.577 FPS Count of elements : 26428 Compression mode : Lossless Stream size : 4.94 MiB (1%) Title : Signs & Songs [GSK_kun] Language : English Default : Yes Forced : Yes Text #2 ID : 5 Format : ASS Codec ID : S_TEXT/ASS Codec ID/Info : Advanced Sub Station Alpha Duration : 23 min 30 s Bit rate : 29.5 kb/s Frame rate : 19.013 FPS Count of elements : 26816 Compression mode : Lossless Stream size : 4.96 MiB (1%) Title : Dialogue [GSK_kun] Language : English Default : No Forced : No Menu 00:00:00.000 : en:Intro 00:02:03.999 : en:OP 00:03:34.006 : en:Part A 00:12:43.013 : en:Part B 00:22:12.665 : en:Outro/ED ``` Dead end for a sucker that’s a sucker like me. 私のようなカモの行き止まりです。

File list

  • Horimiya.S01.1080p.BluRay.10-Bit.Dual-Audio.FLAC2.0.x265-YURASUKA
    • Horimiya.S01E01.1080p.BluRay.10-Bit.Dual-Audio.FLAC2.0.x265-YURASUKA.mkv (756.9 MiB)
    • Horimiya.S01E02.1080p.BluRay.10-Bit.Dual-Audio.FLAC2.0.x265-YURASUKA.mkv (669.6 MiB)
    • Horimiya.S01E03.1080p.BluRay.10-Bit.Dual-Audio.FLAC2.0.x265-YURASUKA.mkv (710.2 MiB)
    • Horimiya.S01E04.1080p.BluRay.10-Bit.Dual-Audio.FLAC2.0.x265-YURASUKA.mkv (626.9 MiB)
    • Horimiya.S01E05.1080p.BluRay.10-Bit.Dual-Audio.FLAC2.0.x265-YURASUKA.mkv (642.7 MiB)
    • Horimiya.S01E06.1080p.BluRay.10-Bit.Dual-Audio.FLAC2.0.x265-YURASUKA.mkv (752.5 MiB)
    • Horimiya.S01E07.1080p.BluRay.10-Bit.Dual-Audio.FLAC2.0.x265-YURASUKA.mkv (705.2 MiB)
    • Horimiya.S01E08.1080p.BluRay.10-Bit.Dual-Audio.FLAC2.0.x265-YURASUKA.mkv (713.9 MiB)
    • Horimiya.S01E09.1080p.BluRay.10-Bit.Dual-Audio.FLAC2.0.x265-YURASUKA.mkv (707.4 MiB)
    • Horimiya.S01E10.1080p.BluRay.10-Bit.Dual-Audio.FLAC2.0.x265-YURASUKA.mkv (689.2 MiB)
    • Horimiya.S01E11.1080p.BluRay.10-Bit.Dual-Audio.FLAC2.0.x265-YURASUKA.mkv (792.2 MiB)
    • Horimiya.S01E12.1080p.BluRay.10-Bit.Dual-Audio.FLAC2.0.x265-YURASUKA.mkv (772.7 MiB)
    • Horimiya.S01E13.1080p.BluRay.10-Bit.Dual-Audio.FLAC2.0.x265-YURASUKA.mkv (926.4 MiB)