[MiraiAnime] Aoharu x Machinegun (2015) [Season 1 + OVA] [BD 1080p x265 HEVC OPUS] [Dual-Audio] Kikanjuu / Special / Kemono-tachi no Senjou da na

Category:
Date:
2023-06-16 19:30 UTC
Submitter:
Seeders:
4
Information:
Leechers:
1
File size:
5.2 GiB
Completed:
567
Info hash:
a08733846a5762367301c34ef40f6383bec287aa
|![](https://i.imgur.com/1u82vjK.jpg)| | :-----: | | [**Aoharu x Kikanjuu \| Aoharu x Machinegun - MyAnimeList.net**](https://myanimelist.net/anime/30205) | | [**Aoharu x Kikanjuu: Kemono-tachi no Senjou da na! \| Aoharu x Machinegun: This is a Battlefield for Beasts! - MyAnimeList.net**](https://myanimelist.net/anime/31754) | ___ #### **Information:** Video was rescaled, degrained and dehaloed. No I didn't sharp this. You can thank the bluray-mastering studio for those ugly sharpening artifacts. *Although I was able to get rid of most of them.* The subtitles had to be synched individually, because of random additional frames in the BluRay. For the first few episodes I also did a few signs, but this was not necessary later on, as Heroin already did an amazing job with typsetting. Other changes: new dialogue style Chapters are from the BDMV. Stereo jpn audio encoded with 256kbit/s. If you want the source files of these, just ask. ___ ### **Episode 4 audio/subtitle delay fix:** #### [**Aoharu x Machinegun (2015) - S01E04 - He's Not Cut Out for That Tournament.mkv - Mega.nz**](https://mega.nz/file/MF1zBBpC#iviWhXLGG5EQ5SMmNSQ-lJnpDavPkzE8J0wYdZo4rwc) ___ ##### For requests or questions, join my (small) discord server here: **https://discord.gg/8n7H3ArdCW** ##### I highly suggest you to use [mpv](https://mpv.io/) for playback. ___ **Summary:** * created signs + heavy retiming * encoded the audio tracks from PCM/DTS to OPUS (opusenc) * encoded and filtered video tracks to HEVC (x265, crf 22) * naming scheme matches [AniDB.net](https://anidb.net/anime/11110) |Track-Type | Title | Attributes | | :-------------: |:-------------:| :-----:| |video|Japanese|x265 HEVC 10bit 23.976FPS 1920x1080| |audio|Japanese|48.0kHz stereo OPUS| |audio|English|48.0kHz stereo OPUS (**default**)| |subtitles|Dialogue|ass| |subtitles|Sign&Songs|ass (**default**)| |chapters| ___ #### **Source:** **[BDMV@U2]** - video, jpn-audio, chapters **[USBDMV@U2]** - eng-audio **[Heroine](https://nyaa.si/view/879027)** - subtitles ___ #### **FFprobe:** ``` Input #0, matroska,webm, from 'Aoharu x Machinegun (2015) - S01E01 - Let's Start This Deathless Death Match.mkv': Metadata: creation_time : 2023-06-16T00:23:54.000000Z ENCODER : Lavf60.3.100 Duration: 00:24:13.01, start: -0.007000, bitrate: 2147 kb/s Chapters: Chapter #0:0: start 0.000000, end 90.840740 Metadata: title : Chapter 1 Chapter #0:1: start 90.840740, end 766.849400 Metadata: title : Chapter 2 Chapter #0:2: start 766.849400, end 1330.829500 Metadata: title : Chapter 3 Chapter #0:3: start 1330.829500, end 1420.836000 Metadata: title : Chapter 4 Chapter #0:4: start 1420.836000, end 1451.700300 Metadata: title : Chapter 5 Stream #0:0(jpn): Video: hevc (Main 10), yuv420p10le(tv, bt709), 1920x1080, SAR 1:1 DAR 16:9, 23.98 fps, 23.98 tbr, 1k tbn (default) Metadata: title : [BDMV] Japanese BPS : 1527519 DURATION : 00:24:11.701000000 NUMBER_OF_FRAMES: 34806 NUMBER_OF_BYTES : 277187763 _STATISTICS_WRITING_APP: mkvmerge v77.0 ('Elemental') 64-bit _STATISTICS_WRITING_DATE_UTC: 2023-06-16 00:23:54 _STATISTICS_TAGS: BPS DURATION NUMBER_OF_FRAMES NUMBER_OF_BYTES Stream #0:1(jpn): Audio: opus, 48000 Hz, stereo, fltp Metadata: title : [BDMV] Japanese ENCODER : opusenc from opus-tools 0.2 ENCODER_OPTIONS : --bitrate 256k BPS : 257134 DURATION : 00:24:11.712000000 NUMBER_OF_FRAMES: 72586 NUMBER_OF_BYTES : 46660716 _STATISTICS_WRITING_APP: mkvmerge v77.0 ('Elemental') 64-bit _STATISTICS_WRITING_DATE_UTC: 2023-06-16 00:23:54 _STATISTICS_TAGS: BPS DURATION NUMBER_OF_FRAMES NUMBER_OF_BYTES Stream #0:2(eng): Audio: opus, 48000 Hz, stereo, fltp (default) Metadata: title : [USBDMV] English ENCODER : opusenc from opus-tools 0.1.10 ENCODER_OPTIONS : --bitrate 256k BPS : 265026 DURATION : 00:24:13.009000000 NUMBER_OF_FRAMES: 72651 NUMBER_OF_BYTES : 48135758 _STATISTICS_WRITING_APP: mkvmerge v77.0 ('Elemental') 64-bit _STATISTICS_WRITING_DATE_UTC: 2023-06-16 00:23:54 _STATISTICS_TAGS: BPS DURATION NUMBER_OF_FRAMES NUMBER_OF_BYTES Stream #0:3(eng): Subtitle: ass Metadata: title : [Heroine] Dialogue (MiraiAnime-Edit) BPS : 135 DURATION : 00:23:54.930000000 NUMBER_OF_FRAMES: 484 NUMBER_OF_BYTES : 24225 _STATISTICS_WRITING_APP: mkvmerge v77.0 ('Elemental') 64-bit _STATISTICS_WRITING_DATE_UTC: 2023-06-16 00:23:54 _STATISTICS_TAGS: BPS DURATION NUMBER_OF_FRAMES NUMBER_OF_BYTES Stream #0:4(eng): Subtitle: ass (default) Metadata: title : [Heroine] Sign&Songs (MiraiAnime-Edit) BPS : 24 DURATION : 00:23:54.930000000 NUMBER_OF_FRAMES: 67 NUMBER_OF_BYTES : 4408 _STATISTICS_WRITING_APP: mkvmerge v77.0 ('Elemental') 64-bit _STATISTICS_WRITING_DATE_UTC: 2023-06-16 00:23:54 _STATISTICS_TAGS: BPS DURATION NUMBER_OF_FRAMES NUMBER_OF_BYTES Stream #0:5: Attachment: ttf Metadata: filename : Commie_Sans.ttf mimetype : application/x-truetype-font Stream #0:6: Attachment: ttf Metadata: filename : PASSINGNOTES.ttf mimetype : application/x-truetype-font Stream #0:7: Attachment: ttf Metadata: filename : A_OTF_Folk_Pro_0.ttf mimetype : application/x-truetype-font Stream #0:8: Attachment: none Metadata: filename : gungsuh.ttc mimetype : application/x-truetype-collection Stream #0:9: Attachment: ttf Metadata: filename : A_OTF_TakaHandSTD_B_0.ttf mimetype : application/x-truetype-font Stream #0:10: Attachment: ttf Metadata: filename : A_OTF_Jun34Pro_Medium_Kami_0.ttf mimetype : application/x-truetype-font Stream #0:11: Attachment: ttf Metadata: filename : A_OTF_Folk_Pro_R.ttf mimetype : application/x-truetype-font Stream #0:12: Attachment: ttf Metadata: filename : BTTTRIAL.otf mimetype : application/x-font-opentype Stream #0:13: Attachment: ttf Metadata: filename : BlambotPro_0.ttf mimetype : application/x-truetype-font Stream #0:14: Attachment: ttf Metadata: filename : segoeuil_0.ttf mimetype : application/x-truetype-font ``` *** #### **I've included two scripts. You can either deactivate the english-audio and sign&songs subs, or completely remove them. Please read-me.txt** *** #### **Many thanks to Anonymous and [Heroine](https://nyaa.si/?f=0&c=0_0&q=%22%5Bheroine%5D%22) for making this possible.** ___ If you find anything that seems out of the ordinary, just post a comment or in my discord and I'll take a look at it.

File list

  • Aoharu x Machinegun (2015) [Season 1 + OVA] [BD 1080p HEVC OPUS] [Dual-Audio]
    • Season 1
      • Aoharu x Machinegun (2015) - S01E01 - Let's Start This Deathless Death Match.mkv (372.0 MiB)
      • Aoharu x Machinegun (2015) - S01E02 - Didn't I Tell You I Don't Need Friends.mkv (352.5 MiB)
      • Aoharu x Machinegun (2015) - S01E03 - We'll Become the Greatest Partners.mkv (337.6 MiB)
      • Aoharu x Machinegun (2015) - S01E04 - He's Not Cut Out for That Tournament.mkv (323.9 MiB)
      • Aoharu x Machinegun (2015) - S01E05 - I Don't Want to Leave the Team.mkv (523.4 MiB)
      • Aoharu x Machinegun (2015) - S01E06 - The Storm Is Coming.mkv (494.5 MiB)
      • Aoharu x Machinegun (2015) - S01E07 - We'll Crush That Hope.mkv (523.9 MiB)
      • Aoharu x Machinegun (2015) - S01E08 - What Controls Your Mind Now.mkv (510.7 MiB)
      • Aoharu x Machinegun (2015) - S01E09 - That's What Makes Me Cool.mkv (345.2 MiB)
      • Aoharu x Machinegun (2015) - S01E10 - I Want to Fight With These People.mkv (342.4 MiB)
      • Aoharu x Machinegun (2015) - S01E11 - Let's Do Something Fun.mkv (402.0 MiB)
      • Aoharu x Machinegun (2015) - S01E12 - I Won't Yield.mkv (345.1 MiB)
    • Specials
      • Aoharu x Machinegun (2015) - S00E01 - Battle of the Beasts.mkv (402.7 MiB)
    • Remove-Dub.bat (3.7 KiB)
    • Remove-Dub.sh (3.7 KiB)
    • Switch-to-Sub.bat (3.9 KiB)
    • Switch-to-Sub.sh (3.9 KiB)
    • read-me.txt (518 Bytes)
thank you for all the works!
Thx. Any chance for upload Watashi ga Motete Dousunda?
TY for the work. FYI, just noticed that E04 audio and sub are 1ms too slow. Had to hasten both audio and sub by 1 ms. I wasn't exactly watching the previous episodes, mostly listening with occasional glances.

ThatWaxEllo (uploader)

User
**@kilimar:** The only subtitle delay I could find by quickly checking the video, is just the op/title?? Anyways, there was also a 1 second eng-audio delay. You can find the fixed file in the description.