[neoDESU] The Magical Revolution of the Reincarnated Princess and the Genius Young Lady [Season 1] [BD 1080p x265 HEVC OPUS] Tensei Oujo to Tensai Reijou no Mahou Kakumei

Category:
Date:
2023-06-11 15:57 UTC
Submitter:
Seeders:
24
Information:
Leechers:
3
File size:
2.1 GiB
Completed:
1471
Info hash:
518d9cbc592c193c953c841a621254035bed59bb
![](https://i.lensdump.com/i/6BKULK.png) *Come hang out in **[Discord](https://discord.gg/47Q7FdB54e)*** #### **[The Magical Revolution of the Reincarnated Princess and the Genius Young Lady [Season 1]](https://myanimelist.net/anime/52736/Tensei_Oujo_to_Tensai_Reijou_no_Mahou_Kakumei)** ▶️ **[Trailer](https://www.youtube.com/watch?v=POBnqZeaO6s)** --- **Synopsis** Princess Anisphia "Anis" Wynn Palletia has always dreamed of flying through the sky, even though the people of her kingdom consider it a silly ambition. Also at odds with her goal is the fact that Anis is incapable of using magic despite her noble status. Refusing to give up so easily, she renounces her right to the throne, and focuses on developing "magicology" by combining various resources with knowledge from her previous life on Earth. Due to Anis' nature, responsibility for the kingdom's future is passed onto her younger brother, Algard. Pushed into a political marriage with Euphyllia Magenta, a girl he hardly knows, Algard rebels by spending more time with a commoner girl than his fiancée. After Euphyllia tries to intervene, Algard publicly calls off their marriage and denounces his ex-fiancée as a bully. After crashing into the banquet where Algard makes the announcement, Anis rescues Euphyllia on the flying broom she is testing. She decides to make Euphyllia her assistant, which the other girl reluctantly agrees to. Although their partnership appears random at first, Anis has an ulterior motive for wanting Euphyllia's company. ![](https://i.imgur.com/iHyZKYH.png) --- **Source** 🗃️ Video and JPN Audio (JPN BDMV): **[[KoushinRip]](https://nyaa.si/view/1652216)** 🗃️ Subtitles: **[[Chihiro]](https://nyaa.si/view/1653827)** 💬 *Subtitles Info: [Chihiro]* *Thank you all for making this possible <3* --- **Media Info** ``` General Unique ID : 278629844257675861458251513445795126621 (0xD19E27F29A6B050AF21CBCFE1CE25D5D) Complete name : The Magical Revolution of the Reincarnated Princess and the Genius Young Lady - S01E01.mkv Format : Matroska Format version : Version 4 File size : 200 MiB Duration : 23 min 42 s Overall bit rate : 1 179 kb/s Encoded date : UTC 2023-06-11 14:40:10 Writing application : mkvmerge v72.0.0 ('Minuano (Six-eight)') 64-bit Writing library : libebml v1.4.4 + libmatroska v1.7.1 / Lavf60.3.100 Attachments : Kozuka Gothic Pro H.otf / VanioTrial-Regular.ttf / Vesta-Bold.ttf / ChewieDEMO-Bold.otf / ChewieDEMO-SemiBold.otf / grain.ttf / Gumbo DEMO.otf / KozGoPro-Heavy.otf Video ID : 1 Format : HEVC Format/Info : High Efficiency Video Coding Format profile : Main 10@L4@High Codec ID : V_MPEGH/ISO/HEVC Duration : 23 min 42 s Bit rate : 992 kb/s Width : 1 920 pixels Height : 1 080 pixels Display aspect ratio : 16:9 Frame rate mode : Constant Frame rate : 23.976 (24000/1001) FPS Color space : YUV Chroma subsampling : 4:2:0 Bit depth : 10 bits Bits/(Pixel*Frame) : 0.020 Stream size : 168 MiB (84%) Writing library : x265 3.5+37+12-4e46995bc:[Windows][MSVC 1931][64 bit] 10bit Encoding settings : cpuid=1111039 / frame-threads=5 / numa-pools=32 / wpp / no-pmode / no-pme / no-psnr / no-ssim / log-level=2 / input-csp=1 / input-res=1920x1080 / interlace=0 / total-frames=184 / level-idc=40 / high-tier=1 / uhd-bd=0 / ref=5 / no-allow-non-conformance / no-repeat-headers / annexb / no-aud / no-eob / no-eos / no-hrd / info / hash=0 / no-temporal-layers / open-gop / min-keyint=23 / keyint=250 / gop-lookahead=0 / bframes=16 / b-adapt=2 / b-pyramid / bframe-bias=0 / rc-lookahead=120 / lookahead-slices=4 / scenecut=40 / no-hist-scenecut / radl=0 / no-splice / no-intra-refresh / ctu=64 / min-cu-size=8 / rect / no-amp / max-tu-size=32 / tu-inter-depth=1 / tu-intra-depth=1 / limit-tu=0 / rdoq-level=1 / dynamic-rd=0.00 / no-ssim-rd / signhide / no-tskip / nr-intra=0 / nr-inter=0 / no-constrained-intra / no-strong-intra-smoothing / max-merge=3 / limit-refs=3 / limit-modes / me=3 / subme=3 / merange=57 / temporal-mvp / no-frame-dup / no-hme / weightp / no-weightb / no-analyze-src-pics / deblock=-1:-1 / no-sao / no-sao-non-deblock / rd=4 / selective-sao=0 / no-early-skip / rskip / no-fast-intra / no-tskip-fast / no-cu-lossless / no-b-intra / no-splitrd-skip / rdpenalty=0 / psy-rd=1.50 / psy-rdoq=2.00 / no-rd-refine / no-lossless / cbqpoffs=0 / crqpoffs=0 / rc=crf / crf=21.5 / qcomp=0.60 / qpstep=4 / stats-write=0 / stats-read=0 / vbv-maxrate=30000 / vbv-bufsize=30000 / vbv-init=0.9 / min-vbv-fullness=50.0 / max-vbv-fullness=80.0 / crf-max=0.0 / crf-min=0.0 / ipratio=1.40 / pbratio=1.30 / aq-mode=3 / aq-strength=0.80 / aq-bias-strength=1.00 / cutree / zone-count=0 / no-strict-cbr / qg-size=32 / no-rc-grain / qpmax=69 / qpmin=0 / no-const-vbv / sar=0 / overscan=0 / videoformat=5 / range=0 / colorprim=2 / transfer=2 / colormatrix=2 / chromaloc=0 / display-window=0 / cll=0,0 / min-luma=0 / max-luma=1023 / log2-max-poc-lsb=8 / vui-timing-info / vui-hrd-info / slices=1 / no-opt-qp-pps / no-opt-ref-list-length-pps / no-multi-pass-opt-rps / scenecut-bias=0.05 / hist-threshold=0.03 / no-opt-cu-delta-qp / no-aq-motion / no-hdr10 / no-hdr10-opt / no-dhdr10-opt / no-idr-recovery-sei / analysis-reuse-level=0 / analysis-save-reuse-level=0 / analysis-load-reuse-level=0 / scale-factor=0 / refine-intra=0 / refine-inter=0 / refine-mv=1 / refine-ctu-distortion=0 / no-limit-sao / ctu-info=0 / no-lowpass-dct / refine-analysis-type=0 / copy-pic=1 / max-ausize-factor=1.0 / no-dynamic-refine / no-single-sei / no-hevc-aq / no-svt / no-field / qp-adaptation-range=1.00 / scenecut-aware-qp=0conformance-window-offsets / right=0 / bottom=0 / decoder-max-rate=0 / no-vbv-live-multi-pass Default : Yes Forced : No Audio ID : 2 Format : Opus Codec ID : A_OPUS Duration : 23 min 42 s Bit rate : 120 kb/s Channel(s) : 2 channels Channel layout : L R Sampling rate : 48.0 kHz Frame rate : 50.000 FPS (960 SPF) Bit depth : 16 bits Compression mode : Lossy Stream size : 20.4 MiB (10%) Title : Japanese Writing library : Lavc60.3.100 libopus Language : Japanese Default : Yes Forced : No Text ID : 3 Format : ASS Codec ID : S_TEXT/ASS Codec ID/Info : Advanced Sub Station Alpha Duration : 23 min 29 s Bit rate : 33.0 kb/s Frame rate : 9.026 FPS Count of elements : 12725 Compression mode : Lossless Stream size : 5.54 MiB (3%) Title : Dialogue Language : English Default : Yes Forced : No Menu 00:00:00.000 : :Prologue 00:03:35.006 : :Tensei Oujo to Tensai Reijou no Mahou Kakumei 01 00:23:35.956 : :Preview ```

File list

  • [neoDESU] The Magical Revolution of the Reincarnated Princess and the Genius Young Lady [Season 1] [BD 1080p x265 HEVC OPUS]
    • The Magical Revolution of the Reincarnated Princess and the Genius Young Lady - S01E01.mkv (200.0 MiB)
    • The Magical Revolution of the Reincarnated Princess and the Genius Young Lady - S01E02.mkv (154.5 MiB)
    • The Magical Revolution of the Reincarnated Princess and the Genius Young Lady - S01E03.mkv (165.9 MiB)
    • The Magical Revolution of the Reincarnated Princess and the Genius Young Lady - S01E04.mkv (164.2 MiB)
    • The Magical Revolution of the Reincarnated Princess and the Genius Young Lady - S01E05.mkv (315.0 MiB)
    • The Magical Revolution of the Reincarnated Princess and the Genius Young Lady - S01E06.mkv (159.0 MiB)
    • The Magical Revolution of the Reincarnated Princess and the Genius Young Lady - S01E07.mkv (136.7 MiB)
    • The Magical Revolution of the Reincarnated Princess and the Genius Young Lady - S01E08.mkv (174.1 MiB)
    • The Magical Revolution of the Reincarnated Princess and the Genius Young Lady - S01E09.mkv (180.1 MiB)
    • The Magical Revolution of the Reincarnated Princess and the Genius Young Lady - S01E10.mkv (147.4 MiB)
    • The Magical Revolution of the Reincarnated Princess and the Genius Young Lady - S01E11.mkv (165.5 MiB)
    • The Magical Revolution of the Reincarnated Princess and the Genius Young Lady - S01E12.mkv (221.6 MiB)
Any Plan for Danmachi IV ?

neoborn (uploader)

User
**@shanks2020** It's on the list. Couple more weeks until the dub has concluded >_<
Thanks for the reply. Looking forward to it.