[neoDESU] Gekidol [Season 1 + OVA] [BD 1080p x265 HEVC OPUS] [Dual Audio] Gekidol: Actidol Project + Alice in Deadly School

Category:
Date:
2023-06-10 14:08 UTC
Submitter:
Seeders:
10
Information:
Leechers:
0
File size:
3.0 GiB
Completed:
619
Info hash:
638e5aa326849554f3d1293f7312a600accf6e15
![](https://i.lensdump.com/i/6BKULK.png) *Come hang out in **[Discord](https://discord.gg/47Q7FdB54e)*** #### **[Gekidol [Season 1]](https://myanimelist.net/anime/32455/Gekidol__Actidol_Project)** #### **[Alice in Deadly School [OVA]](https://myanimelist.net/anime/33839/Alice_in_Deadly_School)** ▶️ **[Trailer](https://www.youtube.com/watch?v=rdx08iKtuiE)** --- **Notes:** . Resampled script . Restyled script and changed fonts . Created styled OP & ED . Created some quick and dirty signs TS for titles . Created chapters --- **Synopsis** Five years ago, a mysterious phenomenon known as the Global Synchronic Urban Disappearance caused a large chunk of Ikebukuro to disappear overnight. Following the catastrophe, the inhabitants found themselves thrown into a state of disorder, and unexplained electromagnetic anomalies called "Auroras" began to be sighted. Awed by the performance of idol Izumi Hinazaki at a play utilizing the "Super Material Theater," a stage designed to revitalize Ikebukuro through hologram-enhanced plays, high school student Seria Morino is inspired to become an idol. Shortly afterward, she is scouted by a young woman named Kaoru Sakakibara, who turns out to be the director of Alice in Theater—the troupe that Izumi used to be a part of. Aiming to pursue her dreams, Seria decides to follow Kaoru and joins Alice in Theater. Upon arriving at their establishment, she is cordially welcomed by a group of young and friendly girls who are all very passionate about acting. However, something seems to be amiss… ![](https://i1.lensdump.com/i/6YQmDc.gif) --- **Language Options** I included two simple scripts that you can apply to these files to do the following (Windows only): 1. Make [Single Audio] Japanese: Throws out *English audio* and *Signs&Songs subtitles* tracks 2. Make [Single Audio] English: Throws out *Japanese audio* and *Dialogue subtitles* tracks To apply these put all the video files into the *Language Options* folder and run the .bat file. *Don't combine them and only use them once together with the base files.* --- **Source** 🗃️ Video and Audio (US BDMV): **[DarkraiArceus001]** 🗃️ Subtitles: **[[SubsPlease]](https://nyaa.si/view/1365747)** 💬 *Subtitles Info: [SubsPlease] Base [Me] Edits, see notes* *Thank you all for making this possible <3* --- **Media Info** 🆔 **[Full Mediainfo incl. Encoder Settings](https://pastebin.com/LjyeBZ8X)** ``` General Unique ID : 2219704487338945895645005859395270763 (0x1AB7FE17593BBC88D49A4645488F86B) Complete name : Gekidol - S01E01.mkv Format : Matroska Format version : Version 4 File size : 243 MiB Duration : 23 min 33 s Overall bit rate : 1 444 kb/s Encoded date : UTC 2023-06-10 13:12:03 Writing application : mkvmerge v72.0.0 ('Minuano (Six-eight)') 64-bit Writing library : libebml v1.4.4 + libmatroska v1.7.1 / Lavf60.3.100 Attachments : CRONOSPRO-BOLD.OTF / CRONOSPRO-BOLDIT.OTF / Fat Enterprise.otf / Nexa Bold.otf Video ID : 1 Format : HEVC Format/Info : High Efficiency Video Coding Format profile : Main 10@L4@High Codec ID : V_MPEGH/ISO/HEVC Duration : 23 min 31 s Bit rate : 1 185 kb/s Width : 1 920 pixels Height : 1 080 pixels Display aspect ratio : 16:9 Frame rate mode : Constant Frame rate : 23.976 (24000/1001) FPS Color space : YUV Chroma subsampling : 4:2:0 Bit depth : 10 bits Bits/(Pixel*Frame) : 0.024 Stream size : 199 MiB (82%) Writing library : x265 3.5+37+12-4e46995bc:[Windows][MSVC 1931][64 bit] 10bit Encoding settings : <Check Link Above> Default : Yes Forced : No Audio #1 ID : 2 Format : Opus Codec ID : A_OPUS Duration : 23 min 32 s Bit rate : 128 kb/s Channel(s) : 2 channels Channel layout : L R Sampling rate : 48.0 kHz Frame rate : 50.001 FPS (960 SPF) Bit depth : 32 bits Compression mode : Lossy Stream size : 21.5 MiB (9%) Title : English Writing library : Lavc60.3.100 libopus Language : English Default : Yes Forced : No Audio #2 ID : 3 Format : Opus Codec ID : A_OPUS Duration : 23 min 32 s Bit rate : 126 kb/s Channel(s) : 2 channels Channel layout : L R Sampling rate : 48.0 kHz Frame rate : 50.001 FPS (960 SPF) Bit depth : 32 bits Compression mode : Lossy Stream size : 21.2 MiB (9%) Title : Japanese Writing library : Lavc60.3.100 libopus Language : Japanese Default : No Forced : No Text #1 ID : 4 Format : ASS Codec ID : S_TEXT/ASS Codec ID/Info : Advanced Sub Station Alpha Duration : 23 min 24 s Bit rate : 206 b/s Frame rate : 0.227 FPS Count of elements : 319 Compression mode : Lossless Stream size : 35.4 KiB (0%) Title : Signs & Songs Language : English Default : No Forced : Yes Text #2 ID : 5 Format : ASS Codec ID : S_TEXT/ASS Codec ID/Info : Advanced Sub Station Alpha Duration : 23 min 24 s Bit rate : 302 b/s Frame rate : 0.435 FPS Count of elements : 611 Compression mode : Lossless Stream size : 51.8 KiB (0%) Title : Dialogue Language : English Default : Yes Forced : No Menu 00:00:00.000 : :Intro 00:02:47.020 : :OP 00:04:16.990 : :Episode 00:21:30.980 : :ED 00:23:00.940 : :Preview ```

File list

  • [neoDESU] Gekidol [Season 1 + OVA] [BD 1080p x265 HEVC OPUS] [Dual Audio]
    • Language Options
      • 1. Make [Single Audio] English.bat (254 Bytes)
      • 2. Make [Single Audio] Japanese.bat (254 Bytes)
      • mkvmerge.exe (9.6 MiB)
      • readme.txt (511 Bytes)
    • Season 1
      • Gekidol - S01E01.mkv (243.3 MiB)
      • Gekidol - S01E02.mkv (226.1 MiB)
      • Gekidol - S01E03.mkv (210.1 MiB)
      • Gekidol - S01E04.mkv (217.9 MiB)
      • Gekidol - S01E05.mkv (235.9 MiB)
      • Gekidol - S01E06.mkv (237.6 MiB)
      • Gekidol - S01E07.mkv (196.7 MiB)
      • Gekidol - S01E08.mkv (219.2 MiB)
      • Gekidol - S01E09.mkv (201.2 MiB)
      • Gekidol - S01E10.mkv (183.3 MiB)
      • Gekidol - S01E11.mkv (213.5 MiB)
      • Gekidol - S01E12.mkv (265.9 MiB)
    • Specials
      • Gekidol - S00E02 - [S01E01 - Alice in Deadly School].mkv (389.6 MiB)
wow, that must be the lowest rating I've seen on MAL, so thanks but no thanks

neoborn (uploader)

User
**JoeGP** Blasphemy! You Will watch them idols and You Will like them idols!