Adachi.and.Shimamura.S01.1080p.BluRay.10-Bit.Dual-Audio.FLAC5.1.x265-YURASUKA (Adachi to Shimamura)

Category:
Date:
2023-06-10 04:27 UTC
Submitter:
Seeders:
16
Information:
Leechers:
0
File size:
9.1 GiB
Completed:
457
Info hash:
74f4d0d3e78cb6a5c9e53602952bb3503cc3cf36
Adachi and Shimamura / Adachi to Shimamura Season 1 (2020) Alternative name: Adachi to Bandingu Note that only the English track is 5.1, the Japanese track is stereo. A/V Source: [Anon@Nyaa](https://nyaa.si/view/1368978) (JPBD) 5.1 English Audio Source: AcousticKitty@U2 (USBD) Subtitles Source: [smol@Nyaa](https://nyaa.si/view/1657021) [WBDP] [Encode Comparison](https://slow.pics/c/pcvvuLlb) ``` Complete name : Adachi.and.Shimamura.S01E08.1080p.BluRay.10-Bit.Dual-Audio.FLAC5.1.x265-YURASUKA.mkv Format : Matroska Format version : Version 4 File size : 1 021 MiB Duration : 24 min 6 s Overall bit rate mode : Variable Overall bit rate : 5 921 kb/s Frame rate : 23.976 FPS Movie name : Adachi and Shimamura - S01E08 - YURASUKA Encoded date : 2023-06-09 12:59:47 UTC Writing application : mkvmerge v76.0 ('Celebration') 64-bit Writing library : libebml v1.4.4 + libmatroska v1.7.1 Cover : Yes Attachments : cover.png / Alita Brush.ttf / Apex Brush DEMO.otf / arialbd_1.ttf / ARIALNB_0.TTF / ARNOPRO-BOLDDISPLAY.OTF / ARNOPRO-DISPLAY.OTF / arnorg.ttf / BestMarker.ttf / DjbChalkItUp-0qZr.ttf / GandhiSans-Bold.otf / GandhiSans-BoldItalic.otf / GandhiSans-Italic.otf / GandhiSans-Regular.otf / gloriahallelujah.ttf / HEISEIMARUGOTHICSTDW4.ttf / IWAOMINPRO-BD.OTF / January Handwriting.ttf / Karma-Light.ttf / KOZUKAGOTHICPR6NH.TTF / KOZUKAMINCHOPR6NM-EN.TTF / LATO-REGULAR.OTF / Maid ep title.ttf / malgunbd.ttf / MIAMA.otf / MixBrush.ttf / open sans semibold_0.ttf / OpenSans-ExtraBold.ttf / OpenSans-Italic.ttf / OpenSans-Light.ttf / OpenSans-Regular.ttf / OpenSans-Semibold.1.ttf / OpenSans-Semibold.ttf / PaintMarker-Regular_Demo.otf / PPETRIAL.ttf / PTSansTightBold.ttf / RoundedInformal-5lV8.ttf / Square721_Dm_Normal.ttf / square-deal.ttf / square-deal_0.ttf / TIMELESS-BOLD.TTF / timesbd_1.ttf / timesi.ttf / timesi_0.ttf / zitz.ttf Video ID : 1 Format : HEVC Format/Info : High Efficiency Video Coding Format profile : Main 10@L5@Main Codec ID : V_MPEGH/ISO/HEVC Duration : 24 min 6 s Bit rate : 3 836 kb/s Width : 1 920 pixels Height : 1 080 pixels Display aspect ratio : 16:9 Frame rate mode : Constant Frame rate : 23.976 (24000/1001) FPS Color space : YUV Chroma subsampling : 4:2:0 Bit depth : 10 bits Bits/(Pixel*Frame) : 0.077 Stream size : 661 MiB (65%) Title : YURASUKA 1080p x265 Writing library : x265 3.5:[Linux][GCC 11.2.0][64 bit] 10bit Encoding settings : cpuid=1111039 / frame-threads=4 / numa-pools=24 / wpp / no-pmode / no-pme / no-psnr / no-ssim / log-level=2 / input-csp=1 / input-res=1920x1080 / interlace=0 / total-frames=0 / level-idc=0 / high-tier=1 / uhd-bd=0 / ref=6 / no-allow-non-conformance / no-repeat-headers / annexb / no-aud / no-hrd / info / hash=0 / no-temporal-layers / open-gop / min-keyint=1 / keyint=360 / gop-lookahead=0 / bframes=16 / b-adapt=2 / b-pyramid / bframe-bias=0 / rc-lookahead=72 / lookahead-slices=4 / scenecut=40 / hist-scenecut=0 / radl=0 / no-splice / no-intra-refresh / ctu=32 / min-cu-size=8 / rect / amp / max-tu-size=32 / tu-inter-depth=4 / tu-intra-depth=4 / limit-tu=0 / rdoq-level=2 / dynamic-rd=4.00 / no-ssim-rd / signhide / tskip / nr-intra=0 / nr-inter=0 / no-constrained-intra / strong-intra-smoothing / max-merge=3 / limit-refs=3 / limit-modes / me=3 / subme=7 / merange=57 / temporal-mvp / no-frame-dup / no-hme / weightp / weightb / no-analyze-src-pics / deblock=0:0 / no-sao / no-sao-non-deblock / rd=4 / selective-sao=0 / no-early-skip / rskip / no-fast-intra / no-tskip-fast / no-cu-lossless / b-intra / no-splitrd-skip / rdpenalty=0 / psy-rd=2.00 / psy-rdoq=2.00 / no-rd-refine / no-lossless / cbqpoffs=0 / crqpoffs=0 / rc=crf / crf=16.0 / qcomp=0.72 / qpstep=4 / stats-write=0 / stats-read=0 / vbv-maxrate=20000 / vbv-bufsize=20000 / vbv-init=0.9 / min-vbv-fullness=50.0 / max-vbv-fullness=80.0 / crf-max=0.0 / crf-min=0.0 / ipratio=1.40 / pbratio=1.30 / aq-mode=3 / aq-strength=0.85 / cutree / zone-count=0 / no-strict-cbr / qg-size=32 / no-rc-grain / qpmax=69 / qpmin=0 / no-const-vbv / sar=0 / overscan=0 / videoformat=5 / range=0 / colorprim=1 / transfer=1 / colormatrix=1 / chromaloc=0 / display-window=0 / cll=0,0 / min-luma=0 / max-luma=1023 / log2-max-poc-lsb=8 / vui-timing-info / vui-hrd-info / slices=1 / no-opt-qp-pps / no-opt-ref-list-length-pps / no-multi-pass-opt-rps / scenecut-bias=0.05 / hist-threshold=0.03 / no-opt-cu-delta-qp / no-aq-motion / no-hdr10 / no-hdr10-opt / no-dhdr10-opt / no-idr-recovery-sei / analysis-reuse-level=0 / analysis-save-reuse-level=0 / analysis-load-reuse-level=0 / scale-factor=0 / refine-intra=0 / refine-inter=0 / refine-mv=1 / refine-ctu-distortion=0 / no-limit-sao / ctu-info=0 / no-lowpass-dct / refine-analysis-type=0 / copy-pic=1 / max-ausize-factor=1.0 / no-dynamic-refine / no-single-sei / no-hevc-aq / no-svt / no-field / qp-adaptation-range=1.00 / scenecut-aware-qp=0conformance-window-offsets / right=0 / bottom=0 / decoder-max-rate=0 / no-vbv-live-multi-pass Language : Japanese Default : No Forced : No Color range : Limited Color primaries : BT.709 Transfer characteristics : BT.709 Matrix coefficients : BT.709 Audio #1 ID : 2 Format : FLAC Format/Info : Free Lossless Audio Codec Codec ID : A_FLAC Duration : 24 min 5 s Bit rate mode : Variable Bit rate : 1 275 kb/s Channel(s) : 6 channels Channel layout : L R C LFE Ls Rs Sampling rate : 48.0 kHz Frame rate : 10.417 FPS (4608 SPF) Bit depth : 16 bits Compression mode : Lossless Delay relative to video : 55 ms Stream size : 220 MiB (22%) Title : English FLAC 5.1 Writing library : Lavf60.3.100 Language : English Default : Yes Forced : No MD5 of the unencoded content : 93D24C2BEC265A710BAB2156D865A3E1 Audio #2 ID : 3 Format : FLAC Format/Info : Free Lossless Audio Codec Codec ID : A_FLAC Duration : 24 min 6 s Bit rate mode : Variable Bit rate : 607 kb/s Channel(s) : 2 channels Channel layout : L R Sampling rate : 48.0 kHz Frame rate : 10.417 FPS (4608 SPF) Bit depth : 16 bits Compression mode : Lossless Stream size : 105 MiB (10%) Title : Japanese FLAC 2.0 Writing library : Lavf60.3.100 Language : Japanese Default : No Forced : No MD5 of the unencoded content : 1DC6BD59388F02609B8A9DCB02420528 Text #1 Format : ASS Title : Signs & Songs [WBDP] Language : English Default : Yes Forced : Yes Text #2 Format : ASS Title : Full Subtitles [WBDP] Language : English Default : No Forced : No Menu 00:00:00.000 : ja:Prologue 00:01:39.057 : ja:OP 00:03:09.063 : ja:Part A 00:10:18.075 : ja:Part B 00:22:20.047 : ja:ED 00:23:50.011 : ja:Preview ``` Dead end for a sucker that’s a sucker like me. 私のようなカモの行き止まりです。

File list

  • Adachi.and.Shimamura.S01.1080p.BluRay.10-Bit.Dual-Audio.FLAC5.1.x265-YURASUKA
    • Adachi.and.Shimamura.S01E01.1080p.BluRay.10-Bit.Dual-Audio.FLAC5.1.x265-YURASUKA.mkv (847.9 MiB)
    • Adachi.and.Shimamura.S01E02.1080p.BluRay.10-Bit.Dual-Audio.FLAC5.1.x265-YURASUKA.mkv (768.9 MiB)
    • Adachi.and.Shimamura.S01E03.1080p.BluRay.10-Bit.Dual-Audio.FLAC5.1.x265-YURASUKA.mkv (781.7 MiB)
    • Adachi.and.Shimamura.S01E04.1080p.BluRay.10-Bit.Dual-Audio.FLAC5.1.x265-YURASUKA.mkv (736.0 MiB)
    • Adachi.and.Shimamura.S01E05.1080p.BluRay.10-Bit.Dual-Audio.FLAC5.1.x265-YURASUKA.mkv (752.6 MiB)
    • Adachi.and.Shimamura.S01E06.1080p.BluRay.10-Bit.Dual-Audio.FLAC5.1.x265-YURASUKA.mkv (693.2 MiB)
    • Adachi.and.Shimamura.S01E07.1080p.BluRay.10-Bit.Dual-Audio.FLAC5.1.x265-YURASUKA.mkv (753.6 MiB)
    • Adachi.and.Shimamura.S01E08.1080p.BluRay.10-Bit.Dual-Audio.FLAC5.1.x265-YURASUKA.mkv (1020.7 MiB)
    • Adachi.and.Shimamura.S01E09.1080p.BluRay.10-Bit.Dual-Audio.FLAC5.1.x265-YURASUKA.mkv (762.6 MiB)
    • Adachi.and.Shimamura.S01E10.1080p.BluRay.10-Bit.Dual-Audio.FLAC5.1.x265-YURASUKA.mkv (793.7 MiB)
    • Adachi.and.Shimamura.S01E11.1080p.BluRay.10-Bit.Dual-Audio.FLAC5.1.x265-YURASUKA.mkv (801.4 MiB)
    • Adachi.and.Shimamura.S01E12.1080p.BluRay.10-Bit.Dual-Audio.FLAC5.1.x265-YURASUKA.mkv (618.1 MiB)