[ShouryuuReppa] Kimetsu no Yaiba: Katanakaji no Sato-hen 09 1080p [h264_qsv][8bit][AAC]

Category:
Date:
2023-06-05 02:52 UTC
Submitter:
Seeders:
0
Information:
No information.
Leechers:
9
File size:
575.4 MiB
Completed:
156
Info hash:
7d0e3394f141254bbb739346be0a75bcbe18576a
Source: SubsPlease Encoding Settings H264_QSV ffmpeg -hide_banner -v verbose -i "[SubsPlease] Kimetsu no Yaiba - Katanakaji no Sato-hen - 09 (1080p) [AB915CBF].mkv" -map 0 -c:v h264_qsv -preset veryslow -global_quality 20 -profile:v high -level 40 -refs 4 -color_primaries bt709 -color_trc bt709 -colorspace bt709 -pix_fmt nv12 -acodec copy -scodec copy "[ShouryuuReppa] Kimetsu no Yaiba: Katanakaji no Sato-hen 09 1080p [h264_qsv][8bit][AAC].mkv" MediaInfo General Unique ID : 334260060901820708157475459968420809768 (0xFB7825638E4C63BAEADB4F2F11780C28) Complete name : /home/mrclay/Downloads/H264_QSV/[ShouryuuReppa] Kimetsu no Yaiba: Katanakaji no Sato-hen 1080p [h264_qsv][8bit][AAC]/[ShouryuuReppa] Kimetsu no Yaiba: Katanakaji no Sato-hen 09 1080p [h264_qsv][8bit][AAC].mkv Format : Matroska Format version : Version 4 File size : 575 MiB Duration : 23 min 40 s Overall bit rate : 3 399 kb/s Movie name : Kimetsu no Yaiba: Katanakaji no Sato-hen 09 Encoded date : UTC 2023-06-05 02:45:55 Writing application : mkvmerge v45.0.0 ('Heaven in Pennies') 64-bit Writing library : libebml v1.3.10 + libmatroska v1.5.2 / Lavf60.4.101 Attachments : Roboto-Medium.ttf / Roboto-MediumItalic.ttf / arial.ttf / arialbd.ttf / comic.ttf / comicbd.ttf / times.ttf / timesbd.ttf / trebuc.ttf / trebucbd.ttf / verdana.ttf / verdanab.ttf / CONSOLA.TTF / CONSOLAB.TTF Video ID : 1 Format : AVC Format/Info : Advanced Video Codec Format profile : High@L4 Format settings : CABAC / 4 Ref Frames Format settings, CABAC : Yes Format settings, Reference frames : 4 frames Codec ID : V_MPEG4/ISO/AVC Duration : 23 min 40 s Bit rate : 3 232 kb/s Width : 1 920 pixels Height : 1 080 pixels Display aspect ratio : 16:9 Frame rate mode : Constant Frame rate : 23.976 (24000/1001) FPS Standard : Component Color space : YUV Chroma subsampling : 4:2:0 Bit depth : 8 bits Scan type : Progressive Bits/(Pixel*Frame) : 0.065 Stream size : 547 MiB (95%) Writing library : Lavc60.9.100 h264_qsv Default : Yes Forced : No Color range : Limited Color primaries : BT.709 Transfer characteristics : BT.709 Matrix coefficients : BT.709 Audio ID : 2 Format : AAC LC Format/Info : Advanced Audio Codec Low Complexity Codec ID : A_AAC-2 Duration : 23 min 40 s Bit rate : 128 kb/s Channel(s) : 2 channels Channel layout : L R Sampling rate : 44.1 kHz Frame rate : 43.066 FPS (1024 SPF) Compression mode : Lossy Stream size : 21.7 MiB (4%) Title : ShouryuuReppa Language : Japanese Default : Yes Forced : No Text ID : 3 Format : ASS Codec ID : S_TEXT/ASS Codec ID/Info : Advanced Sub Station Alpha Duration : 23 min 27 s Bit rate : 103 b/s Count of elements : 312 Compression mode : Lossless Stream size : 17.8 KiB (0%) Title : SubsPlease Language : English Default : Yes Forced : No

File list

  • [ShouryuuReppa] Kimetsu no Yaiba: Katanakaji no Sato-hen 09 1080p [h264_qsv][8bit][AAC].mkv (575.4 MiB)
Thanks for sharing! Gotta say, you guys are a class act offering a [h264_qsv][8bit][AAC] thats also a manageable file size. It reminds me file sharing in Anime community from way back at the beginning up to 2011. Then that massive wave of new Anime fans appeared and began requesting uploads the same way they order food at McDonlads or TacoBell. LoL

ShouryuuReppa (uploader)

User
@NetGhost You're very much welcome. I was actually doing the same thing for an anime website 2 years ago, unfortunately, it was shutdown due to financial issues. I was just an uploader. It was really fun doing such thing and I have learned a few things since FFMPEG, Linux, encoding stuff etc had been introduced to me. I don't want them to go to waste that is why I am doing this as a hobby but for selected anime shows only..