Asteroid.in.Love.S01.v2.1080p.BluRay.10-Bit.Dual-Audio.FLAC5.1.x265-YURASUKA (Koisuru Asteroid)

Category:
Date:
2023-06-03 09:18 UTC
Submitter:
Seeders:
5
Information:
Leechers:
0
File size:
8.6 GiB
Completed:
430
Info hash:
8b6e90b8e4f4d3338c0d939f6e4591148bedd640
Asteroid in Love / Koisuru Asteroid Season 1 (2020) v2 v2 Changes: Everything is the same except fixed English audio in episode 3. Anime about looking up at the night sky featuring banding in every night sky. Note that only the English track is 5.1, the Japanese track is stereo. A/V + Subtitles Source: FraMeSToR (JPBD video, USBD audio) Recommended Subtitles: [KOSMOS@Nyaa](https://nyaa.si/view/1415353) (CsRmX edit & restyle) [Encode Comparison](https://slow.pics/c/rZpurAxc) ``` Complete name : Asteroid.in.Love.S01E05.1080p.BluRay.10-Bit.Dual-Audio.FLAC5.1.x265-YURASUKA.mkv Format : Matroska Format version : Version 4 File size : 834 MiB Duration : 23 min 41 s Overall bit rate mode : Variable Overall bit rate : 4 921 kb/s Frame rate : 23.976 FPS Movie name : Asteroid in Love - S01E05 - YURASUKA Encoded date : 2023-05-27 02:15:19 UTC Writing application : mkvmerge v76.0 ('Celebration') 64-bit Writing library : libebml v1.4.4 + libmatroska v1.7.1 Attachments : GandhiSans-Italic.otf / GandhiSans-Regular.otf / Kaku.ttf / Koiast.ttf / Seagull.ttf / serangkaianpattern.ttf / umeboshi.ttf / A-Space Light Demo.otf / Big Fat Marker.ttf / Faraco Hand.ttf / MaruGothic.ttf / MichaelMarkerLite-Regular.ttf / pencilCASE.ttf / Cabin-Regular.ttf / GandhiSans-Bold.otf / GandhiSans-BoldItalic.otf / Heuristica-Bold.otf / KGothic.ttf / AMARANTH-REGULAR.TTF / arial.ttf / arialbd.ttf / Baloo-Regular.ttf / C059-Bold.otf / Cabin-Bold.otf / Inkfree.ttf / Marker SD.ttf / OpenSans-Regular.ttf / OpenSans-Semibold.ttf / PF Reminder Pro Regular.ttf / rexlia rg.ttf / RIFFIC-BOLD.OTF / STHUNTINGTON.TTF / TanukiMin.ttf / Tiresias Infofont Italic.ttf / Tiresias Infofont.ttf / WrittenInTheStars.ttf Video ID : 1 Format : HEVC Format/Info : High Efficiency Video Coding Format profile : Main 10@L5@Main Codec ID : V_MPEGH/ISO/HEVC Duration : 23 min 41 s Bit rate : 2 784 kb/s Width : 1 920 pixels Height : 1 080 pixels Display aspect ratio : 16:9 Frame rate mode : Constant Frame rate : 23.976 (24000/1001) FPS Color space : YUV Chroma subsampling : 4:2:0 Bit depth : 10 bits Bits/(Pixel*Frame) : 0.056 Stream size : 472 MiB (57%) Title : YURASUKA 1080p x265 Writing library : x265 3.5:[Linux][GCC 11.2.0][64 bit] 10bit Encoding settings : cpuid=1111039 / frame-threads=4 / numa-pools=24 / wpp / no-pmode / no-pme / no-psnr / no-ssim / log-level=2 / input-csp=1 / input-res=1920x1080 / interlace=0 / total-frames=0 / level-idc=0 / high-tier=1 / uhd-bd=0 / ref=6 / no-allow-non-conformance / no-repeat-headers / annexb / no-aud / no-hrd / info / hash=0 / no-temporal-layers / open-gop / min-keyint=1 / keyint=360 / gop-lookahead=0 / bframes=16 / b-adapt=2 / b-pyramid / bframe-bias=0 / rc-lookahead=72 / lookahead-slices=4 / scenecut=40 / hist-scenecut=0 / radl=0 / no-splice / no-intra-refresh / ctu=32 / min-cu-size=8 / rect / amp / max-tu-size=32 / tu-inter-depth=4 / tu-intra-depth=4 / limit-tu=0 / rdoq-level=2 / dynamic-rd=4.00 / no-ssim-rd / signhide / tskip / nr-intra=0 / nr-inter=0 / no-constrained-intra / strong-intra-smoothing / max-merge=3 / limit-refs=3 / limit-modes / me=3 / subme=7 / merange=57 / temporal-mvp / no-frame-dup / no-hme / weightp / weightb / no-analyze-src-pics / deblock=0:0 / no-sao / no-sao-non-deblock / rd=4 / selective-sao=0 / no-early-skip / rskip / no-fast-intra / no-tskip-fast / no-cu-lossless / b-intra / no-splitrd-skip / rdpenalty=0 / psy-rd=2.00 / psy-rdoq=2.00 / no-rd-refine / no-lossless / cbqpoffs=0 / crqpoffs=0 / rc=crf / crf=16.0 / qcomp=0.72 / qpstep=4 / stats-write=0 / stats-read=0 / vbv-maxrate=20000 / vbv-bufsize=20000 / vbv-init=0.9 / min-vbv-fullness=50.0 / max-vbv-fullness=80.0 / crf-max=0.0 / crf-min=0.0 / ipratio=1.40 / pbratio=1.30 / aq-mode=3 / aq-strength=0.85 / cutree / zone-count=0 / no-strict-cbr / qg-size=32 / no-rc-grain / qpmax=69 / qpmin=0 / no-const-vbv / sar=0 / overscan=0 / videoformat=5 / range=0 / colorprim=1 / transfer=1 / colormatrix=1 / chromaloc=0 / display-window=0 / cll=0,0 / min-luma=0 / max-luma=1023 / log2-max-poc-lsb=8 / vui-timing-info / vui-hrd-info / slices=1 / no-opt-qp-pps / no-opt-ref-list-length-pps / no-multi-pass-opt-rps / scenecut-bias=0.05 / hist-threshold=0.03 / no-opt-cu-delta-qp / no-aq-motion / no-hdr10 / no-hdr10-opt / no-dhdr10-opt / no-idr-recovery-sei / analysis-reuse-level=0 / analysis-save-reuse-level=0 / analysis-load-reuse-level=0 / scale-factor=0 / refine-intra=0 / refine-inter=0 / refine-mv=1 / refine-ctu-distortion=0 / no-limit-sao / ctu-info=0 / no-lowpass-dct / refine-analysis-type=0 / copy-pic=1 / max-ausize-factor=1.0 / no-dynamic-refine / no-single-sei / no-hevc-aq / no-svt / no-field / qp-adaptation-range=1.00 / scenecut-aware-qp=0conformance-window-offsets / right=0 / bottom=0 / decoder-max-rate=0 / no-vbv-live-multi-pass Language : Japanese Default : Yes Forced : No Color range : Limited Color primaries : BT.709 Transfer characteristics : BT.709 Matrix coefficients : BT.709 Audio #1 ID : 2 Format : FLAC Format/Info : Free Lossless Audio Codec Codec ID : A_FLAC Duration : 23 min 39 s Bit rate mode : Variable Bit rate : 1 354 kb/s Channel(s) : 6 channels Channel layout : L R C LFE Ls Rs Sampling rate : 48.0 kHz Frame rate : 10.417 FPS (4608 SPF) Bit depth : 16 bits Compression mode : Lossless Stream size : 229 MiB (27%) Title : English FLAC 5.1 Writing library : Lavf60.3.100 Language : English Default : Yes Forced : No MD5 of the unencoded content : 14BF5285786B3D8436CC5DE66312E5C8 Audio #2 ID : 3 Format : FLAC Format/Info : Free Lossless Audio Codec Codec ID : A_FLAC Duration : 23 min 41 s Bit rate mode : Variable Bit rate : 706 kb/s Channel(s) : 2 channels Channel layout : L R Sampling rate : 48.0 kHz Frame rate : 10.417 FPS (4608 SPF) Bit depth : 16 bits Compression mode : Lossless Stream size : 120 MiB (14%) Title : Japanese FLAC 2.0 Writing library : Lavf60.3.100 Language : Japanese Default : No Forced : No MD5 of the unencoded content : D160CA5324C9739FB7DDFB46DD009BC0 Text #1 Format : PGS Title : Signs & Songs (USBD) Language : English Default : Yes Forced : Yes Text #2 Format : PGS Title : Full Subtitles (USBD) Language : English Default : No Forced : No Text #3 Format : ASS Title : Full Subtitles (CsRmX edit & restyle) Language : English Default : No Forced : No Menu 00:00:00.000 : en:Avant 00:00:48.048 : en:OP 00:02:18.013 : en:Part A 00:14:07.013 : en:Part B 00:22:05.032 : en:ED 00:23:35.039 : en:Next ``` Dead end for a sucker that’s a sucker like me. 私のようなカモの行き止まりです。

File list

  • Asteroid.in.Love.S01.v2.1080p.BluRay.10-Bit.Dual-Audio.FLAC5.1.x265-YURASUKA
    • Asteroid.in.Love.S01E01.1080p.BluRay.10-Bit.Dual-Audio.FLAC5.1.x265-YURASUKA.mkv (729.3 MiB)
    • Asteroid.in.Love.S01E02.1080p.BluRay.10-Bit.Dual-Audio.FLAC5.1.x265-YURASUKA.mkv (833.2 MiB)
    • Asteroid.in.Love.S01E03.v2.1080p.BluRay.10-Bit.Dual-Audio.FLAC5.1.x265-YURASUKA.mkv (707.1 MiB)
    • Asteroid.in.Love.S01E04.1080p.BluRay.10-Bit.Dual-Audio.FLAC5.1.x265-YURASUKA.mkv (648.4 MiB)
    • Asteroid.in.Love.S01E05.1080p.BluRay.10-Bit.Dual-Audio.FLAC5.1.x265-YURASUKA.mkv (833.7 MiB)
    • Asteroid.in.Love.S01E06.1080p.BluRay.10-Bit.Dual-Audio.FLAC5.1.x265-YURASUKA.mkv (727.2 MiB)
    • Asteroid.in.Love.S01E07.1080p.BluRay.10-Bit.Dual-Audio.FLAC5.1.x265-YURASUKA.mkv (736.9 MiB)
    • Asteroid.in.Love.S01E08.1080p.BluRay.10-Bit.Dual-Audio.FLAC5.1.x265-YURASUKA.mkv (778.4 MiB)
    • Asteroid.in.Love.S01E09.1080p.BluRay.10-Bit.Dual-Audio.FLAC5.1.x265-YURASUKA.mkv (684.3 MiB)
    • Asteroid.in.Love.S01E10.1080p.BluRay.10-Bit.Dual-Audio.FLAC5.1.x265-YURASUKA.mkv (713.0 MiB)
    • Asteroid.in.Love.S01E11.1080p.BluRay.10-Bit.Dual-Audio.FLAC5.1.x265-YURASUKA.mkv (711.8 MiB)
    • Asteroid.in.Love.S01E12.1080p.BluRay.10-Bit.Dual-Audio.FLAC5.1.x265-YURASUKA.mkv (699.4 MiB)