[neoDESU] SPY x FAMILY [Season 1 Part 1 + 2] [BD 1080p x265 HEVC OPUS AAC] [Dual Audio]

Category:
Date:
2023-05-31 17:16 UTC
Submitter:
Seeders:
23
Information:
Leechers:
2
File size:
9.2 GiB
Completed:
1350
Info hash:
8ef7625118e80e58132158e9d42e22f262a818cb
![](https://i.lensdump.com/i/6BKULK.png) *Come hang out in **[Discord](https://discord.gg/47Q7FdB54e)*** #### **[SPY x FAMILY [Season 1 Part 1]](https://myanimelist.net/anime/50265/Spy_x_Family)** #### **[SPY x FAMILY [Season 1 Part 2]](https://myanimelist.net/anime/50602/Spy_x_Family_Part_2)** ▶️ **[Trailer](https://www.youtube.com/watch?v=jR1L1EK3kN0)** --- Due to some unforseen and very tragic circumstances, neoAV1 has passed away. The only other person using my Plex server reported negative results on their end which forces me to postpone this new adventure to the very near future. The future might be tomorrow then, old man :/. For now this format will stick to what it was before, minis filled with all the HEVC love that I can put into them! OPUS for the Japanese track will stay though. However, I will use this opportunity for my complete and total makeover and use this new name from now on. Hurray! This will hopefully lessen the confusion with more future technology experiments as I dont really want to have a gazillion tags >_< **Notes:** . Episodes 1-12 are exactly the same files as in my previous upload of just part 1 --- **Synopsis** Corrupt politicians, frenzied nationalists, and other warmongering forces constantly jeopardize the thin veneer of peace between neighboring countries Ostania and Westalis. In spite of their plots, renowned spy and master of disguise "Twilight" fulfills dangerous missions one after another in the hope that no child will have to experience the horrors of war. In the bustling Ostanian city of Berlint, Twilight dons the alias of "Loid Forger," an esteemed psychiatrist. However, his true intention is to gather intelligence on prominent politician Donovan Desmond, who only appears rarely in public at his sons' school: the prestigious Eden Academy. Enlisting the help of unmarried city hall clerk Yor Briar to act as his wife and adopting the curious six-year-old orphan Anya as his daughter, Loid enacts his master plan. He will enroll Anya in Eden Academy, where Loid hopes she will excel and give him the opportunity to meet Donovan without arousing suspicion. Unfortunately for Loid, even a man of his talents has trouble playing the figure of a loving father and husband. And just like Loid is hiding his true identity, Yor—who is an underground assassin known as "Thorn Princess"—and Anya—an esper who can read people's minds—have no plans to disclose their own secrets either. Although this picture-perfect family is founded on deception, the Forgers gradually come to understand that the love they share for one another trumps all else. ![](https://i.imgur.com/vOg4kmj.png) --- **Language Options** I included two simple scripts that you can apply to these files to do the following (Windows only): 1. Make [Single Audio] Japanese: Throws out *English audio* and *Signs&Songs subtitles* tracks 2. Make [Single Audio] English: Throws out *Japanese audio* and *Dialogue subtitles* tracks To apply these put all the video files into the *Language Options* folder and run the .bat file. *Don't combine them and only use them once together with the base files.* --- **Source** 🗃️ Video and JPN Audio (JPN BDMV): **[[KoushinRip]](https://nyaa.si/view/1554352)** 🗃️ ENG Audio (WEB): **[[Yameii]](https://nyaa.si/view/1516038)** 🗃️ Subtitles: **[[Cyan]](https://nyaa.si/view/1577471)** **[[LostYears]](https://nyaa.si/view/1591126)** 💬 *Subtitles Info: [Cyan] Base [LostYears] Edits in Ep 13-25* *Thank you all for making this possible <3* --- **Media Info** 🆔 **[Full Mediainfo incl. Encoder Settings](https://pastebin.com/Atid8SV6)** ``` General Unique ID : 53023872299558188940954254901287691406 (0x27E406BE68AA0F11FE12A1F8E71DA48E) Complete name : SPY x FAMILY - S01E01.mkv Format : Matroska Format version : Version 4 File size : 305 MiB Duration : 24 min 11 s Overall bit rate : 1 760 kb/s Movie name : SPY x FAMILY - S01E01 Encoded date : UTC 2022-10-25 21:35:28 Writing application : mkvmerge v57.0.0 ('Till The End') 64-bit Writing library : libebml v1.4.2 + libmatroska v1.6.4 / Lavf58.47.100 Attachments : AA_DIAVLO_MEDIUM_HUN.ttf / AA_Garamond_Hun.ttf / AdobeGothicStd-Bold.otf / arial.ttf / arialbd.ttf / DK Hobgoblin.otf / FOT-SlumpStd-DB.otf / NIS-NBK-83pv-RKSJ-H-02.ttf / NOW-MU.ttf / PTSANSTIGHT-BOLD.TTF / PTSANSTIGHT-BOLDITALIC.TTF / SourceHanSerifTC-SemiBold.O82N5532.otf / StardosStencil-Bold.ttf / Suki12 Insert Font.ttf / Woodland ITC Medium.ttf / XinYuGongHeXieSong-H.ttf / [Kono Michi - Fansub] Filmcryptic_hun.ttf Video ID : 1 Format : HEVC Format/Info : High Efficiency Video Coding Format profile : Main 10@L4@High Codec ID : V_MPEGH/ISO/HEVC Duration : 24 min 11 s Bit rate : 1 308 kb/s Width : 1 920 pixels Height : 1 080 pixels Display aspect ratio : 16:9 Frame rate mode : Variable Frame rate : 23.976 FPS Color space : YUV Chroma subsampling : 4:2:0 Bit depth : 10 bits Bits/(Pixel*Frame) : 0.026 Stream size : 226 MiB (74%) Writing library : x265 3.5+1-f0c1022b6:[Windows][GCC 9.2.0][64 bit] 10bit Encoding settings : <Check Link Above> Default : Yes Forced : No Color range : Limited Color primaries : BT.709 Transfer characteristics : BT.709 Matrix coefficients : BT.709 Audio #1 ID : 2 Format : AAC LC Format/Info : Advanced Audio Codec Low Complexity Codec ID : A_AAC-2 Duration : 24 min 10 s Bit rate : 161 kb/s Channel(s) : 2 channels Channel layout : L R Sampling rate : 44.1 kHz Frame rate : 43.066 FPS (1024 SPF) Compression mode : Lossy Stream size : 27.8 MiB (9%) Title : English Language : English Default : Yes Forced : No Audio #2 ID : 3 Format : AAC LC Format/Info : Advanced Audio Codec Low Complexity Codec ID : A_AAC-2 Duration : 24 min 11 s Bit rate : 205 kb/s Channel(s) : 2 channels Channel layout : L R Sampling rate : 48.0 kHz Frame rate : 46.875 FPS (1024 SPF) Compression mode : Lossy Delay relative to video : 23 ms Stream size : 35.6 MiB (12%) Title : Japanese Language : Japanese Default : No Forced : No Text #1 ID : 4 Format : ASS Codec ID : S_TEXT/ASS Codec ID/Info : Advanced Sub Station Alpha Duration : 19 min 58 s Bit rate : 535 b/s Count of elements : 369 Compression mode : Lossless Stream size : 78.3 KiB (0%) Title : Signs & Songs Language : English Default : No Forced : Yes Text #2 ID : 5 Format : ASS Codec ID : S_TEXT/ASS Codec ID/Info : Advanced Sub Station Alpha Duration : 24 min 6 s Bit rate : 619 b/s Count of elements : 855 Compression mode : Lossless Stream size : 109 KiB (0%) Title : Dialogue Language : English Default : Yes Forced : No Menu 00:00:00.000 : :Intro 00:04:16.860 : :Episode 00:21:52.920 : :ED 00:23:25.130 : :Outro ```

File list

  • [neoDESU] SPY x FAMILY [Season 1 Part 1 + 2] [BD 1080p x265 HEVC OPUS AAC] [Dual Audio]
    • Language Options
      • 1. Make [Single Audio] English.bat (254 Bytes)
      • 2. Make [Single Audio] Japanese.bat (254 Bytes)
      • mkvmerge.exe (9.6 MiB)
      • readme.txt (511 Bytes)
    • SPY x FAMILY - S01E01.mkv (304.6 MiB)
    • SPY x FAMILY - S01E02.mkv (303.4 MiB)
    • SPY x FAMILY - S01E03.mkv (457.4 MiB)
    • SPY x FAMILY - S01E04.mkv (447.7 MiB)
    • SPY x FAMILY - S01E05.mkv (494.0 MiB)
    • SPY x FAMILY - S01E06.mkv (432.6 MiB)
    • SPY x FAMILY - S01E07.mkv (438.0 MiB)
    • SPY x FAMILY - S01E08.mkv (372.2 MiB)
    • SPY x FAMILY - S01E09.mkv (450.1 MiB)
    • SPY x FAMILY - S01E10.mkv (512.2 MiB)
    • SPY x FAMILY - S01E11.mkv (426.5 MiB)
    • SPY x FAMILY - S01E12.mkv (454.0 MiB)
    • SPY x FAMILY - S01E13.mkv (338.0 MiB)
    • SPY x FAMILY - S01E14.mkv (388.7 MiB)
    • SPY x FAMILY - S01E15.mkv (339.6 MiB)
    • SPY x FAMILY - S01E16.mkv (269.8 MiB)
    • SPY x FAMILY - S01E17.mkv (323.8 MiB)
    • SPY x FAMILY - S01E18.mkv (240.1 MiB)
    • SPY x FAMILY - S01E19.mkv (347.5 MiB)
    • SPY x FAMILY - S01E20.mkv (378.4 MiB)
    • SPY x FAMILY - S01E21.mkv (342.9 MiB)
    • SPY x FAMILY - S01E22.mkv (343.6 MiB)
    • SPY x FAMILY - S01E23.mkv (329.7 MiB)
    • SPY x FAMILY - S01E24.mkv (324.0 MiB)
    • SPY x FAMILY - S01E25.mkv (335.1 MiB)
Thanks for your work, rip neoAV1 (I guess it'll come back as a zombie), at least I can enjoy hevc goodness a little more.
yea good idea to stick with HEVC for the time being until more people have hardware accelerated AV1...
Yeah sadly the AV1 doesn't work well for me though I do appreciate the advancement itself. Thanks for this release!
@ShadowVlican Kinda Catch-22 situation. Without quality AV1 encodes people won't upgrade to AV1 compatible devices but AV1 on itself is meaningless for older devices.
rip they saw the power bill
probably should have been gjm subs for 1-12 with the cyan edits being done for 13 onwards (since those edits are to match gjm) or just went all cyan straight up