[neoAV1] The Little Lies We All Tell [Season 1] [BD 1080p aomenc AV1 OPUS] 4-nin wa Sorezore Uso wo Tsuku

Category:
Date:
2023-05-24 14:12 UTC
Submitter:
Seeders:
13
Information:
Leechers:
1
File size:
2.1 GiB
Completed:
784
Info hash:
9954d7b29e51bc97439d69b1addc29e88f0f0a69
![](https://i.imgur.com/RBlGp48.png) *Come hang out in **[Discord](https://discord.gg/47Q7FdB54e)*** #### **[The Little Lies We All Tell [Season 1]](https://myanimelist.net/anime/51464/4-nin_wa_Sorezore_Uso_wo_Tsuku)** โ–ถ๏ธ **[Trailer](https://www.youtube.com/watch?v=S-oqQllSHFI)** --- **Synopsis** What do an alien, former ninja, weak telepath, and boy pretending to be a girl have in common? They are all classmates at Kashihara Girls' Academy, and they hide their true identities from the world. Rikka, Chiyo, Sekine, and Tsubasa seem like the best of friends, but they each harbor a monumental secret that they cannot reveal, no matter what. In order to continue masquerading as normal middle school girls, each of them must invent creative ways to conceal their true selves. But that is easier said than done, as the four students end up entangled in numerous shenanigans along the way. ![](https://i2.lensdump.com/i/kX3ijr.gif) --- **Source** ๐Ÿ—ƒ๏ธ Video and JPN Audio (JPN BDMV): **[[KoushinRip]](https://nyaa.si/view/1674414)** ๐Ÿ—ƒ๏ธ Subtitles: **[[Chihiro]](https://nyaa.si/view/1593184)** ๐Ÿ’ฌ *Subtitles Info: [Chihiro]* *Thank you all for making this possible <3* --- **Media Info** ``` General Unique ID : 68081507185873481056536903159150565242 (0x3338057633082E729147AE5C7974577A) Complete name : The Little Lies We All Tell - S01E01.mkv Format : Matroska Format version : Version 4 File size : 184 MiB Duration : 23 min 40 s Overall bit rate : 1 090 kb/s Encoded date : UTC 2023-05-23 22:02:35 Writing application : mkvmerge v72.0.0 ('Minuano (Six-eight)') 64-bit Writing library : libebml v1.4.4 + libmatroska v1.7.1 / Lavf60.3.100 Attachments : angelina.TTF / Arbery.otf / ArchitectsDaughter.ttf / Aristotelica Display DemiBold Trial.ttf / bBagian.ttf / Boby.otf / Brush Strokes.ttf / Carton_Six.ttf / CFSamuraiBob.ttf / Chalk Perio.otf / Chalk Scratches Rough Bold.otf / Chalktastic.ttf / Chocolate Cookies.ttf / Coconut Cookies.ttf / Comic Sans MS Bold.ttf / comicbd.ttf / DevinneSwash.ttf / Dimbo Regular.ttf / Dirty Headline.ttf / DK Cool Crayon.ttf / FloodStd.otf / Frederick Greatong.otf / Fredoka-Regular.ttf / FuturaHandwritten.ttf / Grandstander-clean.ttf / Icegirl-Regular.ttf / IndieFlower.ttf / Indy Effects bold.otf / Jackwrite.ttf / JennaSue.ttf / Jouzu-Regular.otf / KGEverSinceNewYork.ttf / kimberley bl.otf / Luna.ttf / Mungil-Regular.ttf / mvboli.ttf / My_handwriting.ttf / MyriadPro (Bold).otf / NozakiDialogue-Bold.otf / NozakiDialogue-BoldItalic.otf / Oceanside Typewriter.ttf / Orion Chalk Solid Demo Version.otf / Please write me a song.ttf / Rubik-SemiBold.ttf / Sangi Serif Font.ttf / Square Beat DEMO.otf / Sweet Saturday.ttf / trebuc.ttf / trebucit.ttf / Vanilla Twilight.otf / VanioTrial-Regular.ttf / Vlump Black.ttf / ZAKIDS.ttf / Neverlonie-SemicondensedRegular.otf Video ID : 1 Format : AV1 Format/Info : AOMedia Video 1 Format profile : Main@L4.0 Codec ID : V_AV1 Duration : 23 min 40 s Bit rate : 894 kb/s Width : 1 920 pixels Height : 1 080 pixels Display aspect ratio : 16:9 Frame rate mode : Constant Frame rate : 23.976 (24000/1001) FPS Color space : YUV Chroma subsampling : 4:2:0 Bit depth : 10 bits Bits/(Pixel*Frame) : 0.018 Stream size : 151 MiB (82%) Default : Yes Forced : No Color range : Limited Audio ID : 2 Format : Opus Codec ID : A_OPUS Duration : 23 min 40 s Bit rate : 126 kb/s Channel(s) : 2 channels Channel layout : L R Sampling rate : 48.0 kHz Frame rate : 50.000 FPS (960 SPF) Bit depth : 16 bits Compression mode : Lossy Stream size : 21.3 MiB (12%) Title : Japanese Writing library : Lavc60.3.100 libopus Language : Japanese Default : Yes Forced : No Text ID : 3 Format : ASS Codec ID : S_TEXT/ASS Codec ID/Info : Advanced Sub Station Alpha Duration : 23 min 30 s Bit rate : 12.9 kb/s Frame rate : 13.778 FPS Count of elements : 19429 Compression mode : Lossless Stream size : 2.18 MiB (1%) Title : Dialogue Language : English Default : Yes Forced : No Menu 00:00:00.020 : :Intro 00:00:54.030 : :OP 00:02:32.010 : :Episode 00:21:46.990 : :ED 00:23:16.960 : :Preview ```

File list

  • [neoAV1] The Little Lies We All Tell [Season 1] [BD 1080p aomenc AV1 OPUS]
    • The Little Lies We All Tell - S01E01.mkv (184.5 MiB)
    • The Little Lies We All Tell - S01E02.mkv (199.0 MiB)
    • The Little Lies We All Tell - S01E03.mkv (195.9 MiB)
    • The Little Lies We All Tell - S01E04.mkv (174.4 MiB)
    • The Little Lies We All Tell - S01E05.mkv (188.1 MiB)
    • The Little Lies We All Tell - S01E06.mkv (225.3 MiB)
    • The Little Lies We All Tell - S01E07.mkv (177.5 MiB)
    • The Little Lies We All Tell - S01E08.mkv (216.9 MiB)
    • The Little Lies We All Tell - S01E09.mkv (192.3 MiB)
    • The Little Lies We All Tell - S01E10.mkv (195.5 MiB)
    • The Little Lies We All Tell - S01E11.mkv (172.2 MiB)
I'm not a huge fan of the AV1 encodes but still glad to see you uploading stuff consistently
Plex added support for av1, so the videos play fine for me, is av1 bad?
**@LastBreeze:** > is av1 bad No, it's just the "newest" video codec and in fact the best to achieve high quality encodes at this size. People don't like it, because they either hate change, or their device can't play it anymore.
@LastBreeze If anything, at the very least it's a good fit for mini encodes, people are just being autistic as always.
If AV1 is so good, where is AV2 on nyaa? Checkmate Atheists

neoborn (uploader)

User
Instead of the av1 discussion, would anybody please say how cool this cover is that only took me 3h to make please? ![](https://i.imgur.com/5l62if9.gif)
It actually stood out to me right away and I said to myself โ€œdang, neo is getting good at Adobe CCโ€ "If AV1 is so good, where is AV2 on nyaa? Checkmate Atheists" lmao
Thanks for your work neo. ๐Ÿ™
If people are disliking AV1 is because their device doesn't play it. If you're using something like Plex and don't have the Plex pass, Jellyfin is a great alternative (the hardware transcoding is free) there are even plugins to keep your Anilist.co and/or trakt watched lists automatically updated. Also, @neoborn the banner is really cool. Always nice to see some extra effort in making the descriptions look nice. As usual, thank you for sharing!
Thanks, and nice Banner

neoborn (uploader)

User
![](https://i.imgur.com/IX3oOFy.png) Make sure to send some love to [Chihiro] who did most of the hard work that is in this upload here by creating such nice subtitles \o/ All I did was make this cover >_<