[neoHEVC] Shikimori's Not Just a Cutie [Season 1] [BD 1080p x265 HEVC OPUS] [Dual Audio] Kawaii dake ja Nai Shikimori-san

Category:
Date:
2023-05-17 19:31 UTC
Submitter:
Seeders:
9
Information:
Leechers:
3
File size:
3.4 GiB
Completed:
1050
Info hash:
2bf8247a88127abe4a0f871758eafa60044de9c8
![](https://i.imgur.com/RBlGp48.png) *Come hang out in **[Discord](https://discord.gg/47Q7FdB54e)*** #### **[Shikimori's Not Just a Cutie [Season 1]](https://myanimelist.net/anime/45613/Kawaii_dake_ja_Nai_Shikimori-san)** โ–ถ๏ธ **[Trailer](https://www.youtube.com/watch?v=utyXdk4G0-w)** --- **Notes:** *EP 7-12* . Resampled script . Restyled script and changed fonts to match EP 1-6 . Inserted OP & ED from EP 1-6 . Created title signs TS to match EP 1-6 . Created chapters --- **Synopsis** Yuu Izumi leads a high school life filled with one mishap after another. No matter how improbable the situation, unfortunate events strike him at every turn. In possession of such terrible luck, Izumi enters his second year with a single wish in mindโ€”to spend more time with his affectionate girlfriend, Micchon Shikimori. Cute, athletic, and caring, Shikimori is immensely popular at their school. But since they began dating a year ago, Izumi has witnessed a surprising side to his otherwise adorable girlfriend: when the need arises, she turns incredibly cool! His misfortunes are easily avoided when she is there to protect him with an awe-inspiring look on her face. Charming in every way, she never ceases to make his heart skip a beat. Unfortunate as he may be, Izumi is sure to see his days of bad luck end thanks to the cute yet cool Shikimori. ![](https://i.imgur.com/rhvIssZ.png) --- **Language Options** I included two simple scripts that you can apply to these files to do the following (Windows only): 1. Make [Single Audio] Japanese: Throws out *English audio* and *Signs&Songs subtitles* tracks 2. Make [Single Audio] English: Throws out *Japanese audio* and *Dialogue subtitles* tracks To apply these put all the video files into the *Language Options* folder and run the .bat file. *Don't combine them and only use them once together with the base files.* --- **Source** ๐Ÿ—ƒ๏ธ Video and JPN Audio (JPN BDMV): **[[KoushinRip]](https://nyaa.si/view/1547057)** ๐Ÿ—ƒ๏ธ ENG Audio (US BDMV): **[zanros]** ๐Ÿ—ƒ๏ธ Subtitles: **[[9volt]](https://nyaa.si/view/1516537)** **[[SubsPlease]](https://nyaa.si/view/1559916)** ๐Ÿ’ฌ *Subtitles Info: [9volt] EP 1-6 [SubsPlease] EP 7-12 Base [Me] EP 7-12 Edits, see notes* *Thank you all for making this possible <3* --- **Media Info** ๐Ÿ†” **[Full Mediainfo incl. Encoder Settings](https://pastebin.com/DZNy1SpS)** ``` General Unique ID : 33244912378147694850821667704523036460 (0x1902BCBAC30BF1371779BCD5D649972C) Complete name : Shikimori's Not Just a Cutie - S01E01.mkv Format : Matroska Format version : Version 4 File size : 299 MiB Duration : 23 min 24 s Overall bit rate : 1 786 kb/s Encoded date : UTC 2023-05-17 18:54:49 Writing application : mkvmerge v72.0.0 ('Minuano (Six-eight)') 64-bit Writing library : libebml v1.4.4 + libmatroska v1.7.1 / Lavf60.3.100 Attachments : Amaranth-Italic.ttf / Amaranth-Regular.ttf / arialbd.ttf / Artifika-Regular.ttf / BADONK-A-DONK.TTF / BERNIESHAND-PLAIN.TTF / block-berthold-regular.ttf / Candyman.ttf / CrayonHand-Regular.ttf / DJBYARDSALEMARKER-BOLD.TTF / Lato-Regular.ttf / Laughing and Smiling.ttf / Marker Comp.ttf / PermanentMarker.ttf / Roboto-Medium.ttf / times.ttf / timesbd.ttf / barmeno-bold.otf / FOT-CezanneProN-B.otf / Hey Comic.otf / serangkaianpattern.ttf / arial.ttf / AlegreyaSans-Black.ttf / BKANT.TTF / ChalkDust.ttf / CrimsonPro-Bold.ttf / DK Cinnabar Brush.ttf / EmilysHand Regular.ttf / LT_2.TTF / Quicksand-Bold.ttf / akzentrounded-bold.ttf Video ID : 1 Format : HEVC Format/Info : High Efficiency Video Coding Format profile : Main 10@L4@High Codec ID : V_MPEGH/ISO/HEVC Duration : 23 min 24 s Bit rate : 1 431 kb/s Width : 1 920 pixels Height : 1 080 pixels Display aspect ratio : 16:9 Frame rate mode : Constant Frame rate : 23.976 (24000/1001) FPS Color space : YUV Chroma subsampling : 4:2:0 Bit depth : 10 bits Bits/(Pixel*Frame) : 0.029 Stream size : 240 MiB (80%) Writing library : x265 3.5+1-f0c1022b6:[Windows][GCC 9.2.0][64 bit] 10bit Encoding settings : <Check Link Above> Default : Yes Forced : No Color range : Limited Color primaries : BT.709 Transfer characteristics : BT.709 Matrix coefficients : BT.709 Audio #1 ID : 2 Format : Opus Codec ID : A_OPUS Duration : 23 min 24 s Bit rate : 125 kb/s Channel(s) : 2 channels Channel layout : L R Sampling rate : 48.0 kHz Frame rate : 50.000 FPS (960 SPF) Bit depth : 32 bits Compression mode : Lossy Delay relative to video : 1 ms Stream size : 21.0 MiB (7%) Title : English Writing library : Lavc60.3.100 libopus Language : English Default : Yes Forced : No Audio #2 ID : 3 Format : Opus Codec ID : A_OPUS Duration : 23 min 24 s Bit rate : 124 kb/s Channel(s) : 2 channels Channel layout : L R Sampling rate : 48.0 kHz Frame rate : 50.000 FPS (960 SPF) Bit depth : 32 bits Compression mode : Lossy Delay relative to video : 1 ms Stream size : 20.7 MiB (7%) Title : Japanese Writing library : Lavc60.3.100 libopus Language : Japanese Default : No Forced : No Text #1 ID : 4 Format : ASS Codec ID : S_TEXT/ASS Codec ID/Info : Advanced Sub Station Alpha Duration : 18 min 49 s Bit rate : 14.8 kb/s Frame rate : 7.723 FPS Count of elements : 8725 Compression mode : Lossless Stream size : 2.00 MiB (1%) Title : Signs & Songs Language : English Default : No Forced : Yes Text #2 ID : 5 Format : ASS Codec ID : S_TEXT/ASS Codec ID/Info : Advanced Sub Station Alpha Duration : 23 min 13 s Bit rate : 12.1 kb/s Frame rate : 6.488 FPS Count of elements : 9038 Compression mode : Lossless Stream size : 2.01 MiB (1%) Title : Dialogue Language : English Default : Yes Forced : No Menu 00:00:00.000 : :Intro 00:04:31.000 : :OP 00:06:00.920 : :Episode 00:21:53.960 : :ED ```

File list

  • [neoHEVC] Shikimori's Not Just a Cutie [Season 1] [BD 1080p x265 HEVC OPUS] [Dual Audio]
    • Language Options
      • 1. Make [Single Audio] English.bat (254 Bytes)
      • 2. Make [Single Audio] Japanese.bat (254 Bytes)
      • mkvmerge.exe (9.6 MiB)
      • readme.txt (512 Bytes)
    • Shikimori's Not Just a Cutie - S01E01.mkv (299.1 MiB)
    • Shikimori's Not Just a Cutie - S01E02.mkv (287.7 MiB)
    • Shikimori's Not Just a Cutie - S01E03.mkv (292.4 MiB)
    • Shikimori's Not Just a Cutie - S01E04.mkv (287.6 MiB)
    • Shikimori's Not Just a Cutie - S01E05.mkv (298.7 MiB)
    • Shikimori's Not Just a Cutie - S01E06.mkv (295.8 MiB)
    • Shikimori's Not Just a Cutie - S01E07.mkv (265.2 MiB)
    • Shikimori's Not Just a Cutie - S01E08.mkv (303.1 MiB)
    • Shikimori's Not Just a Cutie - S01E09.mkv (299.2 MiB)
    • Shikimori's Not Just a Cutie - S01E10.mkv (322.3 MiB)
    • Shikimori's Not Just a Cutie - S01E11.mkv (273.8 MiB)
    • Shikimori's Not Just a Cutie - S01E12.mkv (263.7 MiB)