Rascal.Does.Not.Dream.of.Bunny.Girl.Senpai.S01.1080p.BluRay.10-Bit.FLAC2.0.x265-YURASUKA (Seishun Buta Yarou wa Bunny Girl Senpai no Yume o Minai)

Category:
Date:
2023-05-13 03:21 UTC
Submitter:
Seeders:
24
Information:
Leechers:
2
File size:
7.3 GiB
Completed:
1408
Info hash:
81aebcc802f8bf277a0ad1e0e64ff13d03f19679
Rascal Does Not Dream of Bunny Girl Senpai / Seishun Buta Yarou wa Bunny Girl Senpai no Yume o Minai S01 (2018) A/V Source: Anti-Raws@rutracker (JPBD) Subtitle Source: [0x539@Nyaa](https://nyaa.si/view/1154488) (Vivid) [Encode Comparison](https://slow.pics/c/M9yab9qB) ``` Complete name : Rascal.Does.Not.Dream.of.Bunny.Girl.Senpai.S01E12.1080p.BluRay.10-Bit.FLAC2.0.x265-YURASUKA.mkv Format : Matroska Format version : Version 4 File size : 760 MiB Duration : 25 min 1 s Overall bit rate mode : Variable Overall bit rate : 4 249 kb/s Frame rate : 23.976 FPS Movie name : Rascal Does Not Dream of Bunny Girl Senpai - S01E12 - YURASUKA Encoded date : 2023-05-12 17:02:17 UTC Writing application : mkvmerge v76.0 ('Celebration') 64-bit Writing library : libebml v1.4.4 + libmatroska v1.7.1 Attachments : Atlantix SSi.ttf / Brianne_s_hand.ttf / Cabin-Bold.ttf / Cabin-BoldItalic.ttf / Cleric SSi Bold.ttf / Cleric SSi.ttf / EmmettsHand Regular.ttf / Foot Fight.ttf / JandaCurlygirlChunky.ttf / Jose Fernandez.ttf / Kimberley.ttf / Merchant Copy.ttf / RuzickaTypeK.ttf / SWZ721M.ttf / TIMELESS-BOLD.TTF / TransportNew-Medium.ttf Video ID : 1 Format : HEVC Format/Info : High Efficiency Video Coding Format profile : Main 10@L5@Main Codec ID : V_MPEGH/ISO/HEVC Duration : 25 min 1 s Bit rate : 3 711 kb/s Width : 1 920 pixels Height : 1 080 pixels Display aspect ratio : 16:9 Frame rate mode : Constant Frame rate : 23.976 (24000/1001) FPS Color space : YUV Chroma subsampling : 4:2:0 Bit depth : 10 bits Bits/(Pixel*Frame) : 0.075 Stream size : 664 MiB (87%) Title : YURASUKA 1080p x265 Writing library : x265 3.5:[Linux][GCC 11.2.0][64 bit] 10bit Encoding settings : cpuid=1111039 / frame-threads=4 / numa-pools=24 / wpp / no-pmode / no-pme / no-psnr / no-ssim / log-level=2 / input-csp=1 / input-res=1920x1080 / interlace=0 / total-frames=0 / level-idc=0 / high-tier=1 / uhd-bd=0 / ref=6 / no-allow-non-conformance / no-repeat-headers / annexb / no-aud / no-hrd / info / hash=0 / no-temporal-layers / open-gop / min-keyint=1 / keyint=360 / gop-lookahead=0 / bframes=16 / b-adapt=2 / b-pyramid / bframe-bias=0 / rc-lookahead=72 / lookahead-slices=4 / scenecut=40 / hist-scenecut=0 / radl=0 / no-splice / no-intra-refresh / ctu=32 / min-cu-size=8 / rect / amp / max-tu-size=32 / tu-inter-depth=4 / tu-intra-depth=4 / limit-tu=0 / rdoq-level=2 / dynamic-rd=4.00 / no-ssim-rd / signhide / tskip / nr-intra=0 / nr-inter=0 / no-constrained-intra / strong-intra-smoothing / max-merge=3 / limit-refs=3 / limit-modes / me=3 / subme=7 / merange=57 / temporal-mvp / no-frame-dup / no-hme / weightp / weightb / no-analyze-src-pics / deblock=0:0 / no-sao / no-sao-non-deblock / rd=4 / selective-sao=0 / no-early-skip / rskip / no-fast-intra / no-tskip-fast / no-cu-lossless / b-intra / no-splitrd-skip / rdpenalty=0 / psy-rd=2.00 / psy-rdoq=2.00 / no-rd-refine / no-lossless / cbqpoffs=0 / crqpoffs=0 / rc=crf / crf=16.0 / qcomp=0.72 / qpstep=4 / stats-write=0 / stats-read=0 / vbv-maxrate=20000 / vbv-bufsize=20000 / vbv-init=0.9 / min-vbv-fullness=50.0 / max-vbv-fullness=80.0 / crf-max=0.0 / crf-min=0.0 / ipratio=1.40 / pbratio=1.30 / aq-mode=3 / aq-strength=0.85 / cutree / zone-count=0 / no-strict-cbr / qg-size=32 / no-rc-grain / qpmax=69 / qpmin=0 / no-const-vbv / sar=0 / overscan=0 / videoformat=5 / range=0 / colorprim=1 / transfer=1 / colormatrix=1 / chromaloc=0 / display-window=0 / cll=0,0 / min-luma=0 / max-luma=1023 / log2-max-poc-lsb=8 / vui-timing-info / vui-hrd-info / slices=1 / no-opt-qp-pps / no-opt-ref-list-length-pps / no-multi-pass-opt-rps / scenecut-bias=0.05 / hist-threshold=0.03 / no-opt-cu-delta-qp / no-aq-motion / no-hdr10 / no-hdr10-opt / no-dhdr10-opt / no-idr-recovery-sei / analysis-reuse-level=0 / analysis-save-reuse-level=0 / analysis-load-reuse-level=0 / scale-factor=0 / refine-intra=0 / refine-inter=0 / refine-mv=1 / refine-ctu-distortion=0 / no-limit-sao / ctu-info=0 / no-lowpass-dct / refine-analysis-type=0 / copy-pic=1 / max-ausize-factor=1.0 / no-dynamic-refine / no-single-sei / no-hevc-aq / no-svt / no-field / qp-adaptation-range=1.00 / scenecut-aware-qp=0conformance-window-offsets / right=0 / bottom=0 / decoder-max-rate=0 / no-vbv-live-multi-pass Language : Japanese Default : Yes Forced : No Color range : Limited Color primaries : BT.709 Transfer characteristics : BT.709 Matrix coefficients : BT.709 Audio ID : 2 Format : FLAC Format/Info : Free Lossless Audio Codec Codec ID : A_FLAC Duration : 25 min 1 s Bit rate mode : Variable Bit rate : 527 kb/s Channel(s) : 2 channels Channel layout : L R Sampling rate : 48.0 kHz Frame rate : 10.417 FPS (4608 SPF) Bit depth : 16 bits Compression mode : Lossless Stream size : 94.4 MiB (12%) Title : Japanese FLAC 2.0 Writing library : Lavf60.3.100 Language : Japanese Default : Yes Forced : No MD5 of the unencoded content : A65A29ECB0050A23C1997E3E72D87FAC Text ID : 3 Format : ASS Codec ID : S_TEXT/ASS Codec ID/Info : Advanced Sub Station Alpha Duration : 25 min 0 s Bit rate : 1 566 b/s Frame rate : 1.949 FPS Count of elements : 2924 Compression mode : Lossless Stream size : 287 KiB (0%) Title : Full Subtitles (Vivid/0x539) Language : English Default : Yes Forced : No Menu 00:00:00.000 : en:Prelude 00:00:20.019 : en:OP 00:01:50.026 : en:Part A 00:11:21.013 : en:Part B 00:23:55.058 : en:ED 00:24:55.035 : en:Next ``` Dead end for a sucker that’s a sucker like me. 私のようなカモの行き止まりです。

File list

  • Rascal.Does.Not.Dream.of.Bunny.Girl.Senpai.S01.1080p.BluRay.10-Bit.FLAC2.0.x265-YURASUKA
    • Rascal.Does.Not.Dream.of.Bunny.Girl.Senpai.S01E01.1080p.BluRay.10-Bit.FLAC2.0.x265-YURASUKA.mkv (694.5 MiB)
    • Rascal.Does.Not.Dream.of.Bunny.Girl.Senpai.S01E02.1080p.BluRay.10-Bit.FLAC2.0.x265-YURASUKA.mkv (586.2 MiB)
    • Rascal.Does.Not.Dream.of.Bunny.Girl.Senpai.S01E03.1080p.BluRay.10-Bit.FLAC2.0.x265-YURASUKA.mkv (572.6 MiB)
    • Rascal.Does.Not.Dream.of.Bunny.Girl.Senpai.S01E04.1080p.BluRay.10-Bit.FLAC2.0.x265-YURASUKA.mkv (457.4 MiB)
    • Rascal.Does.Not.Dream.of.Bunny.Girl.Senpai.S01E05.1080p.BluRay.10-Bit.FLAC2.0.x265-YURASUKA.mkv (499.4 MiB)
    • Rascal.Does.Not.Dream.of.Bunny.Girl.Senpai.S01E06.1080p.BluRay.10-Bit.FLAC2.0.x265-YURASUKA.mkv (653.4 MiB)
    • Rascal.Does.Not.Dream.of.Bunny.Girl.Senpai.S01E07.1080p.BluRay.10-Bit.FLAC2.0.x265-YURASUKA.mkv (432.9 MiB)
    • Rascal.Does.Not.Dream.of.Bunny.Girl.Senpai.S01E08.1080p.BluRay.10-Bit.FLAC2.0.x265-YURASUKA.mkv (540.8 MiB)
    • Rascal.Does.Not.Dream.of.Bunny.Girl.Senpai.S01E09.1080p.BluRay.10-Bit.FLAC2.0.x265-YURASUKA.mkv (500.0 MiB)
    • Rascal.Does.Not.Dream.of.Bunny.Girl.Senpai.S01E10.1080p.BluRay.10-Bit.FLAC2.0.x265-YURASUKA.mkv (629.4 MiB)
    • Rascal.Does.Not.Dream.of.Bunny.Girl.Senpai.S01E11.1080p.BluRay.10-Bit.FLAC2.0.x265-YURASUKA.mkv (540.3 MiB)
    • Rascal.Does.Not.Dream.of.Bunny.Girl.Senpai.S01E12.1080p.BluRay.10-Bit.FLAC2.0.x265-YURASUKA.mkv (760.3 MiB)
    • Rascal.Does.Not.Dream.of.Bunny.Girl.Senpai.S01E13.1080p.BluRay.10-Bit.FLAC2.0.x265-YURASUKA.mkv (610.3 MiB)