[MiraiAnime] Meiji Tokyo Renka (2019) [Season 1] [BD 1080p x265 HEVC OPUS | AAC] [Dual-Audio]

Category:
Date:
2023-05-07 12:00 UTC
Submitter:
Seeders:
6
Information:
Leechers:
0
File size:
3.8 GiB
Completed:
431
Info hash:
31eeb368fa6330a1bde5d48ca9f16c6e508fb285
|![](https://i.imgur.com/7AU5ocr.jpg)| | :-----: | | [**Meiji Tokyo Renka - MyAnimeList.net**](https://myanimelist.net/anime/34209) | ___ #### **Information:** Video got debanded and more grain. Removed funimation intro from the english dub. I created signs for all of the episodes. Would have also done OP/ED, if there had been translations. Chapters are from the BDMV. Stereo jpn audio encoded with 256kbit/s. If you want the source files of these, just ask. ___ ##### For requests or questions, join my (small) discord server here: **https://discord.gg/8n7H3ArdCW** ##### I highly suggest you to use [mpv](https://mpv.io/) for playback. ___ **Summary:** * created signs * encoded the audio tracks from PCM to OPUS (opusenc) * encoded and filtered video tracks to HEVC (x265, crf 20) * naming scheme (mostly) matches [AniDB.net](https://anidb.net/anime/12461) |Track-Type | Title | Attributes | | :-------------: |:-------------:| :-----:| |video|Japanese|x265 HEVC 10bit 23.976FPS 1920x1080| |audio|Japanese|48.0kHz stereo OPUS| |audio|English|48.0kHz stereo AAC (**default**)| |subtitles|Dialogue|ass| |subtitles|Sign&Songs|ass (**default**)| |chapters| ___ #### **Source:** **[BDMV@U2]** - video, jpn-audio, chapters **[Erai-Raws](https://nyaa.si/view/1131888)** - subtitles **[Golumpa]** - eng-audio ___ #### **FFprobe:** ``` Input #0, matroska,webm, from 'Meiji Tokyo Renka (2019) - S01E01 - The Unexpected Strawberry Moon.mkv': Metadata: creation_time : 2023-05-07T01:45:01.000000Z ENCODER : Lavf60.3.100 Duration: 00:23:40.02, start: -0.007000, bitrate: 1713 kb/s Chapters: Chapter #0:0: start 0.000000, end 90.006580 Metadata: title : Chapter 1 Chapter #0:1: start 90.006580, end 795.044240 Metadata: title : Chapter 2 Chapter #0:2: start 795.044240, end 1316.606940 Metadata: title : Chapter 3 Chapter #0:3: start 1316.606940, end 1420.001940 Metadata: title : Chapter 4 Stream #0:0(jpn): Video: hevc (Main 10), yuv420p10le(tv, bt709), 1920x1080, SAR 1:1 DAR 16:9, 23.98 fps, 23.98 tbr, 1k tbn (default) Metadata: title : [BDMV] Japanese BPS : 1192504 DURATION : 00:23:40.002000000 NUMBER_OF_FRAMES: 34046 NUMBER_OF_BYTES : 211669777 _STATISTICS_WRITING_APP: mkvmerge v75.0.0 ('Goliath') 64-bit _STATISTICS_WRITING_DATE_UTC: 2023-05-07 01:45:01 _STATISTICS_TAGS: BPS DURATION NUMBER_OF_FRAMES NUMBER_OF_BYTES Stream #0:1(jpn): Audio: opus, 48000 Hz, stereo, fltp Metadata: title : [BDMV] Japanese ENCODER : opusenc from opus-tools 0.2 ENCODER_OPTIONS : --bitrate 256k BPS : 259971 DURATION : 00:23:40.017000000 NUMBER_OF_FRAMES: 71001 NUMBER_OF_BYTES : 46145536 _STATISTICS_WRITING_APP: mkvmerge v75.0.0 ('Goliath') 64-bit _STATISTICS_WRITING_DATE_UTC: 2023-05-07 01:45:01 _STATISTICS_TAGS: BPS DURATION NUMBER_OF_FRAMES NUMBER_OF_BYTES Stream #0:2(eng): Audio: aac (LC), 48000 Hz, stereo, fltp (default) Metadata: title : [Golumpa] English BPS : 253375 DURATION : 00:23:39.989000000 NUMBER_OF_FRAMES: 66562 NUMBER_OF_BYTES : 44973724 _STATISTICS_WRITING_APP: mkvmerge v75.0.0 ('Goliath') 64-bit _STATISTICS_WRITING_DATE_UTC: 2023-05-07 01:45:01 _STATISTICS_TAGS: BPS DURATION NUMBER_OF_FRAMES NUMBER_OF_BYTES Stream #0:3(eng): Subtitle: ass Metadata: title : [MiraiAnime] Dialogue BPS : 112 DURATION : 00:23:32.950000000 NUMBER_OF_FRAMES: 327 NUMBER_OF_BYTES : 19867 _STATISTICS_WRITING_APP: mkvmerge v75.0.0 ('Goliath') 64-bit _STATISTICS_WRITING_DATE_UTC: 2023-05-07 01:45:01 _STATISTICS_TAGS: BPS DURATION NUMBER_OF_FRAMES NUMBER_OF_BYTES Stream #0:4(eng): Subtitle: ass (default) Metadata: title : [MiraiAnime] Sign&Songs BPS : 9 DURATION : 00:23:32.950000000 NUMBER_OF_FRAMES: 14 NUMBER_OF_BYTES : 1625 _STATISTICS_WRITING_APP: mkvmerge v75.0.0 ('Goliath') 64-bit _STATISTICS_WRITING_DATE_UTC: 2023-05-07 01:45:01 _STATISTICS_TAGS: BPS DURATION NUMBER_OF_FRAMES NUMBER_OF_BYTES Stream #0:5: Attachment: ttf Metadata: filename : Commie_Sans.ttf mimetype : application/x-truetype-font Stream #0:6: Attachment: ttf Metadata: filename : AlteHaasGroteskBold.ttf mimetype : application/x-truetype-font Stream #0:7: Attachment: ttf Metadata: filename : trebucbd.ttf mimetype : application/x-truetype-font Stream #0:8: Attachment: ttf Metadata: filename : BAKESBR.ttf mimetype : application/x-truetype-font Stream #0:9: Attachment: ttf Metadata: filename : Shancalluna.ttf mimetype : application/x-truetype-font Stream #0:10: Attachment: ttf Metadata: filename : Althea_Bold.ttf mimetype : application/x-truetype-font Stream #0:11: Attachment: ttf Metadata: filename : MAIANDRAGD_REGULAR.ttf mimetype : application/x-truetype-font ``` *** #### **I've included two scripts. You can either deactivate the english-audio and sign&songs subs, or completely remove them. Please read-me.txt** *** #### **Many thanks to [Anonymous] and [Erai-Raws](https://nyaa.si/user/erai-raws) for making this possible.** ___ If you find anything that seems out of the ordinary, just post a comment or in my discord and I'll take a look at it.

File list

  • Meiji Tokyo Renka (2019) [Season 1] [BD 1080p HEVC OPUS] [Dual-Audio]
    • Season 1
      • Meiji Tokyo Renka (2019) - S01E01 - The Unexpected Strawberry Moon.mkv (290.1 MiB)
      • Meiji Tokyo Renka (2019) - S01E02 - Sukiyaki Is Romance Veiled in Steam.mkv (413.9 MiB)
      • Meiji Tokyo Renka (2019) - S01E03 - Caught in the Ghost Hotel.mkv (265.2 MiB)
      • Meiji Tokyo Renka (2019) - S01E04 - Flower of Asakusa Rendezvous.mkv (274.0 MiB)
      • Meiji Tokyo Renka (2019) - S01E05 - The Long Road to Becoming a Fiancée.mkv (295.5 MiB)
      • Meiji Tokyo Renka (2019) - S01E06 - Electricity of Dreams and Passion.mkv (302.3 MiB)
      • Meiji Tokyo Renka (2019) - S01E07 - I Miss You Dearly, Rainy Day.mkv (487.9 MiB)
      • Meiji Tokyo Renka (2019) - S01E08 - Masagocho Cat Café Incident.mkv (331.8 MiB)
      • Meiji Tokyo Renka (2019) - S01E09 - Labyrinth of Love and Heartache.mkv (288.8 MiB)
      • Meiji Tokyo Renka (2019) - S01E10 - Escaping at 3 O'Clock in the Afternoon.mkv (277.9 MiB)
      • Meiji Tokyo Renka (2019) - S01E11 - Chat Noir Won't Look Back.mkv (329.9 MiB)
      • Meiji Tokyo Renka (2019) - S01E12 - Embraced by the Strawberry Moon.mkv (290.9 MiB)
    • Remove-Dub.bat (3.1 KiB)
    • Remove-Dub.sh (3.1 KiB)
    • Switch-to-Sub.bat (3.6 KiB)
    • Switch-to-Sub.sh (3.6 KiB)
    • read-me.txt (565 Bytes)
@ThatWaxEllo: Thank you very much for your efforts. ^^ May I actually ask you for the lossless audio files? - I am very interested in them. Thank you.

ThatWaxEllo (uploader)

User
**@KnSnaru** https://mega.nz/folder/ocV3lTgb#AQ4N8tlePMijr6PorauPdg
@ThatWaxEllo: Thank you very much. ^^