[neoHEVC] Classroom of the Elite [Season 2] [BD 1080p x265 HEVC AAC] [Dual Audio] Youkoso Jitsuryoku Shijou Shugi no Kyoushitsu e

Category:
Date:
2023-05-06 21:18 UTC
Submitter:
Seeders:
39
Information:
Leechers:
1
File size:
3.5 GiB
Completed:
1893
Info hash:
38de5ab8c981e2c0d5092ef65ca88c02bcb7e9f9
![](https://i.imgur.com/RBlGp48.png) *Come hang out in **[Discord](https://discord.gg/47Q7FdB54e)*** #### **[Classroom of the Elite [Season 2]](https://myanimelist.net/anime/51096/Youkoso_Jitsuryoku_Shijou_Shugi_no_Kyoushitsu_e_2nd_Season)** ▶️ **[Trailer](https://www.youtube.com/watch?v=YPh0gqAtWBQ)** --- **Notes:** . Adjusted signs (mostly added missing borders, repositioning and blur) --- **Synopsis** Life back on the cruise following the Island Special Examination is anything but smooth sailing. Almost immediately after their return, the first-year students of Tokyo Metropolitan Advanced Nurturing High School face yet another special exam, with both class and individual points on the line. In addition to the complicated ruleset, more issues arise in the form of Kakeru Ryuuen and Kei Karuizawa. Angered by the previous test's outcome, Ryuuen is dead set on outdoing every class in the new challenge using any means necessary. Meanwhile, Karuizawa, a crucial pillar of Class D, is close to crumbling under the pressure of her past. The stage is now set for Kiyotaka Ayanokouji to once again—using the full extent of his planning, foresight, and ruthless manipulation—steer Class D to victory as dangerously close enemy forces try to bring it down. ![](https://i.imgur.com/RW2pYyf.png) --- **Language Options** I included two simple scripts that you can apply to these files to do the following (Windows only): 1. Make [Single Audio] Japanese: Throws out *English audio* and *Signs&Songs subtitles* tracks 2. Make [Single Audio] English: Throws out *Japanese audio* and *Dialogue subtitles* tracks To apply these put all the video files into the *Language Options* folder and run the .bat file. *Don't combine them and only use them once together with the base files.* --- **Source** 🗃️ Video and JPN Audio (JPN BDMV): **[redblaze]** 🗃️ ENG Audio (WEB): **[[Yameii]](https://nyaa.si/view/1557106)** 🗃️ Subtitles: **[[DB]](https://nyaa.si/view/1589444)** 💬 *Subtitles Info: [eXtonan] OP [Buncitnime] ED [Subsplease] Dialogue + Signs [DB] Unifying and styling [Me] additional edits, see notes* *Thank you all for making this possible <3* --- **Media Info** 🆔 **[Full Mediainfo incl. Encoder Settings](https://pastebin.com/LFGy06mE)** ``` General Unique ID : 78618796751872124849979160535085630563 (0x3B256DF2C4E3911665FB007398004463) Complete name : Classroom of the Elite - S02E01.mkv Format : Matroska Format version : Version 4 File size : 295 MiB Duration : 23 min 41 s Overall bit rate : 1 743 kb/s Encoded date : UTC 2023-05-06 17:12:33 Writing application : mkvmerge v72.0.0 ('Minuano (Six-eight)') 64-bit Writing library : libebml v1.4.4 + libmatroska v1.7.1 Attachments : CRONOSPRO-BOLD.OTF / DFMinC1_0.ttf / Passing Notes.ttf / arial.ttf / arialbd.ttf / comic.ttf / comicbd.ttf / Roboto-Medium.ttf / Roboto-MediumItalic.ttf / times.ttf / timesbd.ttf / trebuc.ttf / trebucbd.ttf / verdana.ttf / verdanab.ttf Video ID : 1 Format : HEVC Format/Info : High Efficiency Video Coding Format profile : Main 10@L4@High Codec ID : V_MPEGH/ISO/HEVC Duration : 23 min 41 s Bit rate : 1 301 kb/s Width : 1 920 pixels Height : 1 080 pixels Display aspect ratio : 16:9 Frame rate mode : Constant Frame rate : 23.976 (24000/1001) FPS Color space : YUV Chroma subsampling : 4:2:0 (Type 0) Bit depth : 10 bits Bits/(Pixel*Frame) : 0.026 Stream size : 220 MiB (75%) Writing library : x265 3.5+1-f0c1022b6:[Windows][GCC 10.2.0][64 bit] 10bit Encoding settings : <Check Link Above> Default : Yes Forced : No Color range : Limited Color primaries : BT.709 Transfer characteristics : BT.709 Matrix coefficients : BT.709 Audio #1 ID : 2 Format : AAC LC Format/Info : Advanced Audio Codec Low Complexity Codec ID : A_AAC-2 Duration : 23 min 40 s Bit rate : 256 kb/s Channel(s) : 2 channels Channel layout : L R Sampling rate : 48.0 kHz Frame rate : 46.875 FPS (1024 SPF) Compression mode : Lossy Delay relative to video : 6 ms Stream size : 43.3 MiB (15%) Title : English Language : English Default : Yes Forced : No Audio #2 ID : 3 Format : AAC LC Format/Info : Advanced Audio Codec Low Complexity Codec ID : A_AAC-2 Duration : 23 min 41 s Bit rate : 126 kb/s Channel(s) : 2 channels Channel layout : L R Sampling rate : 48.0 kHz Frame rate : 46.875 FPS (1024 SPF) Compression mode : Lossy Delay relative to video : 7 ms Stream size : 21.4 MiB (7%) Title : Japanese Language : Japanese Default : No Forced : No Text #1 ID : 4 Format : ASS Codec ID : S_TEXT/ASS Codec ID/Info : Advanced Sub Station Alpha Duration : 23 min 23 s Bit rate : 1 328 b/s Frame rate : 0.750 FPS Count of elements : 1053 Compression mode : Lossless Stream size : 227 KiB (0%) Title : Signs & Songs Language : English Default : No Forced : Yes Text #2 ID : 5 Format : ASS Codec ID : S_TEXT/ASS Codec ID/Info : Advanced Sub Station Alpha Duration : 23 min 23 s Bit rate : 1 463 b/s Frame rate : 1.004 FPS Count of elements : 1409 Compression mode : Lossless Stream size : 251 KiB (0%) Title : Dialogue Language : English Default : Yes Forced : No Menu 00:00:00.000 : en:Intro 00:01:07.025 : en:Opening 00:02:37.032 : en:Episode 00:22:10.079 : en:Ending ```

File list

  • [neoHEVC] Classroom of the Elite [Season 2] [BD 1080p x265 HEVC AAC] [Dual Audio]
    • Language Options
      • 1. Make [Single Audio] English.bat (254 Bytes)
      • 2. Make [Single Audio] Japanese.bat (254 Bytes)
      • mkvmerge.exe (9.6 MiB)
      • readme.txt (511 Bytes)
    • Classroom of the Elite - S02E01.mkv (295.2 MiB)
    • Classroom of the Elite - S02E02.mkv (262.3 MiB)
    • Classroom of the Elite - S02E03.mkv (256.8 MiB)
    • Classroom of the Elite - S02E04.mkv (286.8 MiB)
    • Classroom of the Elite - S02E05.mkv (270.5 MiB)
    • Classroom of the Elite - S02E06.mkv (263.5 MiB)
    • Classroom of the Elite - S02E07.mkv (244.2 MiB)
    • Classroom of the Elite - S02E08.mkv (302.0 MiB)
    • Classroom of the Elite - S02E09.mkv (259.7 MiB)
    • Classroom of the Elite - S02E10.mkv (253.0 MiB)
    • Classroom of the Elite - S02E11.mkv (262.5 MiB)
    • Classroom of the Elite - S02E12.mkv (290.0 MiB)
    • Classroom of the Elite - S02E13.mkv (297.8 MiB)
thank you. and you are amazing for adding those .bats to change audio to our choice :o
Thanks for the release, been waiting for a while for this one. Quick Question would you be doing a Bleach Thousand year blood war dual BD release?
Can you release the fixed audio for episode 5 of Combatants Will Be Dispatched! As it's bd audio is available for quite a while

neoborn (uploader)

User
**@Lucaslink2** Not planned. Bleach is not really something I'd watch myself :S If you are interested in my anime projects, I have made a channel in discord that lists everything for which you can expect an upload from me. **@Romanjohn** Check the torrent description for a patch.