[neoHEVC] Wataten! An Angel Flew Down to Me - Precious Friends [Movie] [BD 1920x800p x265 HEVC AAC] Watashi ni Tenshi ga Maiorita! Precious Friends

Category:
Date:
2023-04-29 15:21 UTC
Submitter:
Seeders:
18
Information:
Leechers:
0
File size:
519.8 MiB
Completed:
680
Info hash:
dc08fa380d7a87a9290eeb15638cac9d3b23874f
![](https://i.imgur.com/RBlGp48.png) *Come hang out in **[Discord](https://discord.gg/47Q7FdB54e)*** #### **[Wataten! An Angel Flew Down to Me - Precious Friends [Movie]](https://myanimelist.net/anime/44141/Watashi_ni_Tenshi_ga_Maiorita_Precious_Friends)** ▶️ **[Trailer](https://www.youtube.com/watch?v=KezLN-Ck-T0)** --- **Notes:** . Cut black borders . Resampled script . Restyled script and changed fonts . Created signs TS . Created OP & ED as well as insert song styling/effects and added Japanese song text . Created chapters --- **Synopsis** Hana, Hinata, Noa, Koyori, and Kanon are always good friends. Today, they are having a friendly sweets party at home with Miyako's homemade sweets! The flower-shaped cookies look just like the hair ornaments worn by Hana. The hair ornament was a precious treasure that Hana received from her grandmother when she was little, and everyone was intrigued by the story. And as "practice for the school trip," they decide to go visit Hana's grandmother's house...! The "first" outing for everyone is about to begin. ![](https://i.imgur.com/ci1akW2.png) --- **Source** 🗃️ Video and JPN Audio (JPN BDMV): **[PuddingCafe]** 🗃️ Subtitles: **[[SubsPlease]](https://nyaa.si/view/1661631)** 💬 *Subtitles Info: [SubsPlease] Base [Me] Edits, see notes* *Thank you all for making this possible <3* --- **Media Info** ``` General Unique ID : 291912728293243229912059321070591658769 (0xDB9C58B1641E77C03A041272E0AFCB11) Complete name : Wataten! An Angel Flew Down to Me - S00E02 - [S01M01 Precious Friends].mkv Format : Matroska Format version : Version 4 File size : 520 MiB Duration : 1 h 6 min Overall bit rate : 1 091 kb/s Movie name : Wataten! An Angel Flew Down to Me - S00E02 - [S01M01 Precious Friends] Encoded date : UTC 2023-04-29 15:02:34 Writing application : mkvmerge v72.0.0 ('Minuano (Six-eight)') 64-bit Writing library : libebml v1.4.4 + libmatroska v1.7.1 / Lavf58.76.100 Attachments : BRUSHSTROKES.TTF / CRONOSPRO-BOLD.OTF / CRONOSPRO-BOLDIT.OTF / CronosPro-Semibold.ttf / Passing Notes.ttf / rabiohead.ttf / Ananda Personal Use.ttf / Roboto-Medium.ttf / Roboto-MediumItalic.ttf / arial.ttf / arialbd.ttf / comic.ttf / comicbd.ttf / times.ttf / timesbd.ttf / trebuc.ttf / trebucbd.ttf / verdana.ttf / verdanab.ttf / CONSOLA.TTF / CONSOLAB.TTF Video ID : 1 Format : HEVC Format/Info : High Efficiency Video Coding Format profile : Main 10@L4@High Codec ID : V_MPEGH/ISO/HEVC Duration : 1 h 6 min Bit rate : 948 kb/s Width : 1 920 pixels Height : 800 pixels Display aspect ratio : 2.40:1 Frame rate mode : Constant Frame rate : 23.976 (24000/1001) FPS Color space : YUV Chroma subsampling : 4:2:0 (Type 0) Bit depth : 10 bits Bits/(Pixel*Frame) : 0.026 Stream size : 451 MiB (87%) Writing library : x265 3.5+1-f0c1022b6:[Windows][GCC 10.2.0][64 bit] 10bit Encoding settings : cpuid=1111039 / frame-threads=5 / numa-pools=32 / wpp / no-pmode / no-pme / no-psnr / no-ssim / log-level=2 / input-csp=1 / input-res=1920x800 / interlace=0 / total-frames=0 / level-idc=40 / high-tier=1 / uhd-bd=0 / ref=6 / no-allow-non-conformance / no-repeat-headers / annexb / no-aud / no-hrd / info / hash=0 / no-temporal-layers / open-gop / min-keyint=24 / keyint=240 / gop-lookahead=0 / bframes=16 / b-adapt=2 / b-pyramid / bframe-bias=0 / rc-lookahead=120 / lookahead-slices=4 / scenecut=40 / hist-scenecut=0 / radl=0 / no-splice / no-intra-refresh / ctu=64 / min-cu-size=8 / rect / no-amp / max-tu-size=32 / tu-inter-depth=1 / tu-intra-depth=1 / limit-tu=0 / rdoq-level=1 / dynamic-rd=0.00 / no-ssim-rd / signhide / no-tskip / nr-intra=0 / nr-inter=0 / no-constrained-intra / no-strong-intra-smoothing / max-merge=3 / limit-refs=3 / limit-modes / me=3 / subme=3 / merange=57 / temporal-mvp / no-frame-dup / no-hme / weightp / no-weightb / no-analyze-src-pics / deblock=-1:-1 / no-sao / no-sao-non-deblock / rd=4 / selective-sao=0 / no-early-skip / rskip / no-fast-intra / no-tskip-fast / no-cu-lossless / no-b-intra / no-splitrd-skip / rdpenalty=0 / psy-rd=2.00 / psy-rdoq=2.00 / no-rd-refine / no-lossless / cbqpoffs=0 / crqpoffs=0 / rc=crf / crf=21.0 / qcomp=0.60 / qpstep=4 / stats-write=0 / stats-read=0 / vbv-maxrate=30000 / vbv-bufsize=30000 / vbv-init=0.9 / min-vbv-fullness=50.0 / max-vbv-fullness=80.0 / crf-max=0.0 / crf-min=0.0 / ipratio=1.40 / pbratio=1.30 / aq-mode=3 / aq-strength=0.80 / cutree / zone-count=0 / no-strict-cbr / qg-size=32 / no-rc-grain / qpmax=69 / qpmin=0 / no-const-vbv / sar=1 / overscan=0 / videoformat=5 / range=0 / colorprim=1 / transfer=1 / colormatrix=1 / chromaloc=1 / chromaloc-top=0 / chromaloc-bottom=0 / display-window=0 / cll=0,0 / min-luma=0 / max-luma=1023 / log2-max-poc-lsb=8 / vui-timing-info / vui-hrd-info / slices=1 / no-opt-qp-pps / no-opt-ref-list-length-pps / no-multi-pass-opt-rps / scenecut-bias=0.05 / hist-threshold=0.03 / no-opt-cu-delta-qp / no-aq-motion / no-hdr10 / no-hdr10-opt / no-dhdr10-opt / no-idr-recovery-sei / analysis-reuse-level=0 / analysis-save-reuse-level=0 / analysis-load-reuse-level=0 / scale-factor=0 / refine-intra=0 / refine-inter=0 / refine-mv=1 / refine-ctu-distortion=0 / no-limit-sao / ctu-info=0 / no-lowpass-dct / refine-analysis-type=0 / copy-pic=1 / max-ausize-factor=1.0 / no-dynamic-refine / no-single-sei / no-hevc-aq / no-svt / no-field / qp-adaptation-range=1.00 / scenecut-aware-qp=0conformance-window-offsets / right=0 / bottom=0 / decoder-max-rate=0 / no-vbv-live-multi-pass Default : Yes Forced : No Color range : Limited Color primaries : BT.709 Transfer characteristics : BT.709 Matrix coefficients : BT.709 Audio ID : 2 Format : AAC LC Format/Info : Advanced Audio Codec Low Complexity Codec ID : A_AAC-2 Duration : 1 h 6 min Bit rate : 123 kb/s Channel(s) : 2 channels Channel layout : L R Sampling rate : 48.0 kHz Frame rate : 46.875 FPS (1024 SPF) Compression mode : Lossy Stream size : 58.7 MiB (11%) Title : Japanese Language : Japanese Default : Yes Forced : No Text ID : 3 Format : ASS Codec ID : S_TEXT/ASS Codec ID/Info : Advanced Sub Station Alpha Duration : 1 h 5 min Bit rate : 2 554 b/s Frame rate : 2.891 FPS Count of elements : 11446 Compression mode : Lossless Stream size : 1.21 MiB (0%) Title : Dialogue Language : English Default : Yes Forced : No Menu 00:00:00.000 : :Intro 00:12:21.390 : :OP 00:14:00.070 : :Episode 01:01:23.280 : :ED 01:05:49.380 : :Outro ```

File list

oh wow they went with cinematic widescreen ? was this actually shown in movie theaters ? Anyway, thanks 👍