High.School.DxD.S04.1080p.BluRay.10-Bit.Dual-Audio.FLAC5.1.x265-YURASUKA (High School DxD HERO)

Category:
Date:
2023-04-29 07:38 UTC
Submitter:
Seeders:
17
Information:
Leechers:
1
File size:
16.1 GiB
Completed:
760
Info hash:
b22576a4b14a197831f675730522a6b29c9ef46a
High School DxD Season 4 / High School DxD HERO (2018) Note that only the English track is 5.1, the Japanese track is stereo. S00E18 is listed as Episode 0 in other releases and in TheMovieDB as S04E01. I chose the TVDB name for Sonarr. A/V Source: Панкратий@rutracker (JPBD) 5.1 English Audio + Subtitles: [IK@Nyaa](https://nyaa.si/view/1479910) (LostYears/Tensai/IK) [Encode Comparison](https://slow.pics/c/SfY86DIm) ``` Complete name : High.School.DxD.S04E10.1080p.BluRay.10-Bit.Dual-Audio.FLAC5.1.x265-YURASUKA.mkv Format : Matroska Format version : Version 4 File size : 1.49 GiB Duration : 23 min 41 s Overall bit rate mode : Variable Overall bit rate : 8 985 kb/s Frame rate : 23.976 FPS Movie name : High School DxD - S04E10 - YURASUKA Encoded date : 2023-04-29 02:49:34 UTC Writing application : mkvmerge v75.0.0 ('Goliath') 64-bit Writing library : libebml v1.4.4 + libmatroska v1.7.1 Cover : Yes Attachments : 00209 Regular_0.ttf / 00243_0.ttf / 17ôSòrâSâVâbâN.ttf / A-OTF Kaisho MCBK1 Pro MCBK1_0.ttf / A-OTF Kyoukasho ICA Pro.ttf / AGBOOKROUNDED-MEDIUM_0.TTF / Agilita W02 Black Condensed_0.ttf / AireExterior_0.ttf / Amaranth-Regular_0.ttf / ArchitectsDaughter_0.ttf / ARR.TTF / Asul-Bold_0.ttf / Barthowheel Regular.ttf / BPreplayBoldItalics.otf / BRUSHTIPTRAVISTCND.TTF / BubblegumSans-Regular_2.ttf / CAC MOOSE_0.TTF / Cover.jpg / fontastique_0.ttf / HELVETICALTSTD-BLK.OTF / HelveticaRoundedLTStd-Bd.otf / KozMinPro-Heavy.ttf / KOZMIN~1Strippedv2_6.otf / KOZUKAMINCHOPR6NM-EN.TTF / NimbusRomNo9L-Reg.otf / StoneSansStd-Semibold.otf / StoneSansStd-SemiboldItalic.otf / Uplifting.otf / WOODLANDITC-DEMI_0.TTF Video ID : 1 Format : HEVC Format/Info : High Efficiency Video Coding Format profile : Main 10@L5@Main Codec ID : V_MPEGH/ISO/HEVC Duration : 23 min 41 s Bit rate : 6 048 kb/s Width : 1 920 pixels Height : 1 080 pixels Display aspect ratio : 16:9 Frame rate mode : Constant Frame rate : 23.976 (24000/1001) FPS Color space : YUV Chroma subsampling : 4:2:0 Bit depth : 10 bits Bits/(Pixel*Frame) : 0.122 Stream size : 1.00 GiB (67%) Title : YURASUKA 1080p x265 Writing library : x265 3.5:[Linux][GCC 11.2.0][64 bit] 10bit Encoding settings : cpuid=1111039 / frame-threads=4 / numa-pools=24 / wpp / no-pmode / no-pme / no-psnr / no-ssim / log-level=2 / input-csp=1 / input-res=1920x1080 / interlace=0 / total-frames=0 / level-idc=0 / high-tier=1 / uhd-bd=0 / ref=6 / no-allow-non-conformance / no-repeat-headers / annexb / no-aud / no-hrd / info / hash=0 / no-temporal-layers / open-gop / min-keyint=1 / keyint=360 / gop-lookahead=0 / bframes=16 / b-adapt=2 / b-pyramid / bframe-bias=0 / rc-lookahead=72 / lookahead-slices=4 / scenecut=40 / hist-scenecut=0 / radl=0 / no-splice / no-intra-refresh / ctu=32 / min-cu-size=8 / rect / amp / max-tu-size=32 / tu-inter-depth=4 / tu-intra-depth=4 / limit-tu=0 / rdoq-level=2 / dynamic-rd=4.00 / no-ssim-rd / signhide / tskip / nr-intra=0 / nr-inter=0 / no-constrained-intra / strong-intra-smoothing / max-merge=3 / limit-refs=3 / limit-modes / me=3 / subme=7 / merange=57 / temporal-mvp / no-frame-dup / no-hme / weightp / weightb / no-analyze-src-pics / deblock=0:0 / no-sao / no-sao-non-deblock / rd=4 / selective-sao=0 / no-early-skip / rskip / no-fast-intra / no-tskip-fast / no-cu-lossless / b-intra / no-splitrd-skip / rdpenalty=0 / psy-rd=2.00 / psy-rdoq=2.00 / no-rd-refine / no-lossless / cbqpoffs=0 / crqpoffs=0 / rc=crf / crf=16.0 / qcomp=0.72 / qpstep=4 / stats-write=0 / stats-read=0 / vbv-maxrate=20000 / vbv-bufsize=20000 / vbv-init=0.9 / min-vbv-fullness=50.0 / max-vbv-fullness=80.0 / crf-max=0.0 / crf-min=0.0 / ipratio=1.40 / pbratio=1.30 / aq-mode=3 / aq-strength=0.85 / cutree / zone-count=0 / no-strict-cbr / qg-size=32 / no-rc-grain / qpmax=69 / qpmin=0 / no-const-vbv / sar=0 / overscan=0 / videoformat=5 / range=0 / colorprim=1 / transfer=1 / colormatrix=1 / chromaloc=0 / display-window=0 / cll=0,0 / min-luma=0 / max-luma=1023 / log2-max-poc-lsb=8 / vui-timing-info / vui-hrd-info / slices=1 / no-opt-qp-pps / no-opt-ref-list-length-pps / no-multi-pass-opt-rps / scenecut-bias=0.05 / hist-threshold=0.03 / no-opt-cu-delta-qp / no-aq-motion / no-hdr10 / no-hdr10-opt / no-dhdr10-opt / no-idr-recovery-sei / analysis-reuse-level=0 / analysis-save-reuse-level=0 / analysis-load-reuse-level=0 / scale-factor=0 / refine-intra=0 / refine-inter=0 / refine-mv=1 / refine-ctu-distortion=0 / no-limit-sao / ctu-info=0 / no-lowpass-dct / refine-analysis-type=0 / copy-pic=1 / max-ausize-factor=1.0 / no-dynamic-refine / no-single-sei / no-hevc-aq / no-svt / no-field / qp-adaptation-range=1.00 / scenecut-aware-qp=0conformance-window-offsets / right=0 / bottom=0 / decoder-max-rate=0 / no-vbv-live-multi-pass Language : Japanese Default : Yes Forced : No Color range : Limited Color primaries : BT.709 Transfer characteristics : BT.709 Matrix coefficients : BT.709 Audio #1 ID : 2 Format : FLAC Format/Info : Free Lossless Audio Codec Codec ID : A_FLAC Duration : 23 min 41 s Bit rate mode : Variable Bit rate : 1 892 kb/s Channel(s) : 6 channels Channel layout : L R C LFE Ls Rs Sampling rate : 48.0 kHz Frame rate : 11.719 FPS (4096 SPF) Bit depth : 16 bits Compression mode : Lossless Stream size : 320 MiB (21%) Title : English FLAC 5.1 Writing library : libFLAC 1.3.1 (2014-11-25) Language : English Default : Yes Forced : No MD5 of the unencoded content : A593B5B8480BAE9F4F54687CDA3F4E68 Audio #2 ID : 3 Format : FLAC Format/Info : Free Lossless Audio Codec Codec ID : A_FLAC Duration : 23 min 41 s Bit rate mode : Variable Bit rate : 865 kb/s Channel(s) : 2 channels Channel layout : L R Sampling rate : 48.0 kHz Frame rate : 11.719 FPS (4096 SPF) Bit depth : 16 bits Compression mode : Lossless Stream size : 147 MiB (10%) Title : Japanese FLAC 2.0 Writing library : libFLAC 1.2.1 (2007-09-17) Language : Japanese Default : No Forced : No MD5 of the unencoded content : 1639E3E6763E122F0C9182FF3C7AEEA0 Text #1 Format : ASS Title : Signs & Songs (LostYears) Language : English Default : Yes Forced : Yes Text #2 Format : ASS Title : Full Subtitles (Tensai/IK) Language : English Default : No Forced : No Text #3 Format : ASS Title : Full Subtitles (LostYears/IK) Language : English Default : No Forced : No Menu 00:00:00.000 : avant 00:00:32.032 : OP 00:02:01.996 : part A 00:10:19.035 : part B 00:22:05.032 : ED 00:23:35.038 : next ``` Dead end for a sucker that’s a sucker like me. 私のようなカモの行き止まりです。

File list

  • High.School.DxD.S04.1080p.BluRay.10-Bit.Dual-Audio.FLAC5.1.x265-YURASUKA
    • High.School.DxD.S00E18.1080p.BluRay.10-Bit.Dual-Audio.FLAC5.1.x265-YURASUKA.mkv (1.3 GiB)
    • High.School.DxD.S04E01.1080p.BluRay.10-Bit.Dual-Audio.FLAC5.1.x265-YURASUKA.mkv (1.1 GiB)
    • High.School.DxD.S04E02.1080p.BluRay.10-Bit.Dual-Audio.FLAC5.1.x265-YURASUKA.mkv (1.1 GiB)
    • High.School.DxD.S04E03.1080p.BluRay.10-Bit.Dual-Audio.FLAC5.1.x265-YURASUKA.mkv (1.2 GiB)
    • High.School.DxD.S04E04.1080p.BluRay.10-Bit.Dual-Audio.FLAC5.1.x265-YURASUKA.mkv (1.2 GiB)
    • High.School.DxD.S04E05.1080p.BluRay.10-Bit.Dual-Audio.FLAC5.1.x265-YURASUKA.mkv (1.5 GiB)
    • High.School.DxD.S04E06.1080p.BluRay.10-Bit.Dual-Audio.FLAC5.1.x265-YURASUKA.mkv (1.2 GiB)
    • High.School.DxD.S04E07.1080p.BluRay.10-Bit.Dual-Audio.FLAC5.1.x265-YURASUKA.mkv (1016.7 MiB)
    • High.School.DxD.S04E08.1080p.BluRay.10-Bit.Dual-Audio.FLAC5.1.x265-YURASUKA.mkv (1.1 GiB)
    • High.School.DxD.S04E09.1080p.BluRay.10-Bit.Dual-Audio.FLAC5.1.x265-YURASUKA.mkv (1.1 GiB)
    • High.School.DxD.S04E10.1080p.BluRay.10-Bit.Dual-Audio.FLAC5.1.x265-YURASUKA.mkv (1.5 GiB)
    • High.School.DxD.S04E11.1080p.BluRay.10-Bit.Dual-Audio.FLAC5.1.x265-YURASUKA.mkv (1.5 GiB)
    • High.School.DxD.S04E12.1080p.BluRay.10-Bit.Dual-Audio.FLAC5.1.x265-YURASUKA.mkv (1.2 GiB)