[neoHEVC] Shadows House [Season 2] [BD 1080p x265 HEVC AAC] [Dual Audio]

Category:
Date:
2023-04-15 14:41 UTC
Submitter:
Seeders:
14
Information:
Leechers:
4
File size:
2.8 GiB
Completed:
1104
Info hash:
ae63f98c42a9c0a5ffca810f9eec38983c014eb3
![](https://i.imgur.com/RBlGp48.png) *Come hang out in **[Discord](https://discord.gg/47Q7FdB54e)*** #### **[Shadows House [Season 2]](https://myanimelist.net/anime/49782/Shadows_House_2nd_Season)** ▶️ **[Trailer](https://www.youtube.com/watch?v=7uJikCGzm9I)** --- **Notes:** *EP 1-2:* .Changed main dialogue font *Ep 3-12* . Resampled script . Restyled script and changed fonts . Created signs TS to match EP 1-2 . Inserted OP & ED from EP 1-2 . Created chapters --- **Synopsis** After the resolution of the debut, Kate and her Doll Emilico have officially become residents of the Shadows House. However, they are under constant vigilance by the Star Bearers—an elite group in charge of the children's wing. In order to escape from their surveillance and the morbid methods they use to keep everyone's loyalty in check, Kate and Emilico must be wary of who to trust and aim to become Star Bearers themselves. Meanwhile, the Star Bearers have encountered their own problems. A mysterious robed figure dubbed "Master Robe" has trespassed and roams around the children's wing. At first, Master Robe is deemed harmless, but more incidents start occurring that endanger the Dolls' lives—all of them pointing to the suspicious individual. To improve her reputation, Kate decides to solve the mystery herself. Yet, with so few clues and so many suspects, searching for Master Robe and their motive for attacking the mansion proves more challenging than she imagined. ![](https://i.imgur.com/7giGXRK.png) --- **Language Options** I included two simple scripts that you can apply to these files to do the following (Windows only): 1. Make [Single Audio] Japanese: Throws out *English audio* and *Signs&Songs subtitles* tracks 2. Make [Single Audio] English: Throws out *Japanese audio* and *Dialogue subtitles* tracks To apply these put all the video files into the *Language Options* folder and run the .bat file. *Don't combine them and only use them once together with the base files.* --- **Source** 🗃️ Video and JPN Audio (JPN BDMV): **[TheM14]** 🗃️ ENG Audio (WEB): **[[Yameii]](https://nyaa.si/view/1555654)** 🗃️ Subtitles: **[[Sootery]](https://nyaa.si/view/1553953)** **[[Erai-raws]](https://nyaa.si/view/1555474)** 💬 *Subtitles Info: [Sootery] EP 1-2 [Erai-raws] EP 3-12 Base [Me] Edits, see notes* *Thank you all for making this possible <3* --- **Media Info** 🆔 **[Full Mediainfo incl. Encoder Settings](https://pastebin.com/E7k5xshC)** ``` General Unique ID : 152326048788821371225331345739079599485 (0x7298EE0BC7D7A425376F8490E971C57D) Complete name : Shadow House - S02E01.mkv Format : Matroska Format version : Version 4 File size : 240 MiB Duration : 23 min 42 s Overall bit rate : 1 419 kb/s Movie name : Shadow House - S02E01 Encoded date : UTC 2023-04-15 11:47:52 Writing application : mkvmerge v72.0.0 ('Minuano (Six-eight)') 64-bit Writing library : libebml v1.4.4 + libmatroska v1.7.1 / Lavf59.27.100 Attachments : ABELBECKER-LIGHT.TTF / Alegreya-Bold.ttf / HTOWERT.TTF / CRONOSPRO-BOLD.OTF / CRONOSPRO-BOLDIT.OTF / Cabin-PL-Bold.ttf / Cabin-PL-BoldItalic.ttf / alphabetizedcassettetapes.ttf Video ID : 1 Format : HEVC Format/Info : High Efficiency Video Coding Format profile : Main 10@L4@High Codec ID : V_MPEGH/ISO/HEVC Duration : 23 min 41 s Bit rate : 1 120 kb/s Width : 1 920 pixels Height : 1 080 pixels Display aspect ratio : 16:9 Frame rate mode : Constant Frame rate : 23.976 (24000/1001) FPS Color space : YUV Chroma subsampling : 4:2:0 (Type 0) Bit depth : 10 bits Bits/(Pixel*Frame) : 0.023 Stream size : 190 MiB (79%) Writing library : x265 3.5+1-f0c1022b6:[Windows][GCC 10.2.0][64 bit] 10bit Encoding settings : <Check Link Above> Default : Yes Forced : No Color range : Limited Color primaries : BT.709 Transfer characteristics : BT.709 Matrix coefficients : BT.709 Audio #1 ID : 2 Format : AAC LC Format/Info : Advanced Audio Codec Low Complexity Codec ID : A_AAC-2 Duration : 23 min 41 s Bit rate : 162 kb/s Channel(s) : 2 channels Channel layout : L R Sampling rate : 44.1 kHz Frame rate : 43.066 FPS (1024 SPF) Compression mode : Lossy Delay relative to video : -23 ms Stream size : 27.5 MiB (11%) Title : English Writing library : Lavc59.37.100 aac Language : English Default : Yes Forced : No Audio #2 ID : 3 Format : AAC LC Format/Info : Advanced Audio Codec Low Complexity Codec ID : A_AAC-2 Duration : 23 min 41 s Bit rate : 128 kb/s Channel(s) : 2 channels Channel layout : L R Sampling rate : 48.0 kHz Frame rate : 46.875 FPS (1024 SPF) Compression mode : Lossy Stream size : 21.8 MiB (9%) Title : Japanese Language : Japanese Default : No Forced : No Text #1 ID : 4 Format : ASS Codec ID : S_TEXT/ASS Codec ID/Info : Advanced Sub Station Alpha Duration : 21 min 54 s Bit rate : 232 b/s Frame rate : 0.198 FPS Count of elements : 260 Compression mode : Lossless Stream size : 37.4 KiB (0%) Title : Signs & Songs Writing library : Lavc59.37.100 ssa Language : English Default : No Forced : Yes Text #2 ID : 5 Format : ASS Codec ID : S_TEXT/ASS Codec ID/Info : Advanced Sub Station Alpha Duration : 23 min 3 s Bit rate : 384 b/s Frame rate : 0.463 FPS Count of elements : 641 Compression mode : Lossless Stream size : 64.9 KiB (0%) Title : Dialogue Writing library : Lavc59.37.100 ssa Language : English Default : Yes Forced : No Menu 00:00:00.000 : :Intro 00:01:46.000 : :Episode 00:21:39.950 : :ED 00:23:35.940 : :Preview ```

File list

  • [neoHEVC] Shadow House [Season 2] [BD 1080p x265 HEVC AAC] [Dual Audio]
    • Language Options
      • 1. Make [Single Audio] English.bat (254 Bytes)
      • 2. Make [Single Audio] Japanese.bat (254 Bytes)
      • mkvmerge.exe (9.6 MiB)
      • readme.txt (511 Bytes)
    • Shadow House - S02E01.mkv (240.5 MiB)
    • Shadow House - S02E02.mkv (250.6 MiB)
    • Shadow House - S02E03.mkv (301.2 MiB)
    • Shadow House - S02E04.mkv (242.0 MiB)
    • Shadow House - S02E05.mkv (213.8 MiB)
    • Shadow House - S02E06.mkv (216.7 MiB)
    • Shadow House - S02E07.mkv (249.3 MiB)
    • Shadow House - S02E08.mkv (202.4 MiB)
    • Shadow House - S02E09.mkv (239.8 MiB)
    • Shadow House - S02E10.mkv (228.7 MiB)
    • Shadow House - S02E11.mkv (275.3 MiB)
    • Shadow House - S02E12.mkv (207.2 MiB)
Finally. Been waiting for this. Thank you!
shadowS little typo there

neoborn (uploader)

User
Oh whoops. I guess I never really read that name correctly until you pointed this out.
Thank you so much! Great Audio/Video Quality in such compact file size!
thanks, been waiting for a proper dual audio release for quite a while
Thanks for the dual!