High.School.DxD.S02.1080p.BluRay.10-Bit.Dual-Audio.FLAC5.1.x265-YURASUKA (High School DxD NEW)

Category:
Date:
2023-04-15 05:44 UTC
Submitter:
Seeders:
11
Information:
Leechers:
0
File size:
20.6 GiB
Completed:
992
Info hash:
95f57c748b232e3ebd5366fd610066bfd97a8017
High School DxD Season 2 / High School DxD NEW (2013) Note that only the English track is 5.1, the Japanese track is stereo. A/V Source: Панкратий@rutracker (JPBD) 5.1 English Audio + Subtitles: [IK@Nyaa](https://nyaa.si/view/1479910) (FFF/SCY) [Encode Comparison](https://slow.pics/c/KwpjzZAd) ``` Complete name : High.School.DxD.S02E05.1080p.BluRay.10-Bit.Dual-Audio.FLAC5.1.x265-YURASUKA.mkv Format : Matroska Format version : Version 4 File size : 2.13 GiB Duration : 26 min 54 s Overall bit rate mode : Variable Overall bit rate : 11.4 Mb/s Frame rate : 23.976 FPS Movie name : High School DxD - S02E05 - YURASUKA Encoded date : 2023-04-15 03:02:17 UTC Writing application : mkvmerge v75.0.0 ('Goliath') 64-bit Writing library : libebml v1.4.4 + libmatroska v1.7.1 Cover : Yes Attachments : Cover_05_06.png / FOT-MatisseElegantoPro-EB.ttf / Grog-Binge.ttf / KGCorneroftheSky-Regular.ttf / StoneSansStd-Semibold.otf / StoneSansStd-SemiboldItalic.otf / Tanuki Permanent Marker.ttf Video ID : 1 Format : HEVC Format/Info : High Efficiency Video Coding Format profile : Main 10@L5@Main Codec ID : V_MPEGH/ISO/HEVC Duration : 26 min 54 s Bit rate : 8 597 kb/s Width : 1 920 pixels Height : 1 080 pixels Display aspect ratio : 16:9 Frame rate mode : Constant Frame rate : 23.976 (24000/1001) FPS Color space : YUV Chroma subsampling : 4:2:0 Bit depth : 10 bits Bits/(Pixel*Frame) : 0.173 Stream size : 1.62 GiB (76%) Title : YURASUKA 1080p x265 Writing library : x265 3.5:[Linux][GCC 11.2.0][64 bit] 10bit Encoding settings : cpuid=1111039 / frame-threads=4 / numa-pools=24 / wpp / no-pmode / no-pme / no-psnr / no-ssim / log-level=2 / input-csp=1 / input-res=1920x1080 / interlace=0 / total-frames=0 / level-idc=0 / high-tier=1 / uhd-bd=0 / ref=6 / no-allow-non-conformance / no-repeat-headers / annexb / no-aud / no-hrd / info / hash=0 / no-temporal-layers / open-gop / min-keyint=1 / keyint=360 / gop-lookahead=0 / bframes=16 / b-adapt=2 / b-pyramid / bframe-bias=0 / rc-lookahead=72 / lookahead-slices=4 / scenecut=40 / hist-scenecut=0 / radl=0 / no-splice / no-intra-refresh / ctu=32 / min-cu-size=8 / rect / amp / max-tu-size=32 / tu-inter-depth=4 / tu-intra-depth=4 / limit-tu=0 / rdoq-level=2 / dynamic-rd=4.00 / no-ssim-rd / signhide / tskip / nr-intra=0 / nr-inter=0 / no-constrained-intra / strong-intra-smoothing / max-merge=3 / limit-refs=3 / limit-modes / me=3 / subme=7 / merange=57 / temporal-mvp / no-frame-dup / no-hme / weightp / weightb / no-analyze-src-pics / deblock=0:0 / no-sao / no-sao-non-deblock / rd=4 / selective-sao=0 / no-early-skip / rskip / no-fast-intra / no-tskip-fast / no-cu-lossless / b-intra / no-splitrd-skip / rdpenalty=0 / psy-rd=2.00 / psy-rdoq=2.00 / no-rd-refine / no-lossless / cbqpoffs=0 / crqpoffs=0 / rc=crf / crf=16.0 / qcomp=0.72 / qpstep=4 / stats-write=0 / stats-read=0 / vbv-maxrate=20000 / vbv-bufsize=20000 / vbv-init=0.9 / min-vbv-fullness=50.0 / max-vbv-fullness=80.0 / crf-max=0.0 / crf-min=0.0 / ipratio=1.40 / pbratio=1.30 / aq-mode=3 / aq-strength=0.85 / cutree / zone-count=0 / no-strict-cbr / qg-size=32 / no-rc-grain / qpmax=69 / qpmin=0 / no-const-vbv / sar=0 / overscan=0 / videoformat=5 / range=0 / colorprim=1 / transfer=1 / colormatrix=1 / chromaloc=0 / display-window=0 / cll=0,0 / min-luma=0 / max-luma=1023 / log2-max-poc-lsb=8 / vui-timing-info / vui-hrd-info / slices=1 / no-opt-qp-pps / no-opt-ref-list-length-pps / no-multi-pass-opt-rps / scenecut-bias=0.05 / hist-threshold=0.03 / no-opt-cu-delta-qp / no-aq-motion / no-hdr10 / no-hdr10-opt / no-dhdr10-opt / no-idr-recovery-sei / analysis-reuse-level=0 / analysis-save-reuse-level=0 / analysis-load-reuse-level=0 / scale-factor=0 / refine-intra=0 / refine-inter=0 / refine-mv=1 / refine-ctu-distortion=0 / no-limit-sao / ctu-info=0 / no-lowpass-dct / refine-analysis-type=0 / copy-pic=1 / max-ausize-factor=1.0 / no-dynamic-refine / no-single-sei / no-hevc-aq / no-svt / no-field / qp-adaptation-range=1.00 / scenecut-aware-qp=0conformance-window-offsets / right=0 / bottom=0 / decoder-max-rate=0 / no-vbv-live-multi-pass Language : Japanese Default : Yes Forced : No Color range : Limited Color primaries : BT.709 Transfer characteristics : BT.709 Matrix coefficients : BT.709 Audio #1 ID : 2 Format : FLAC Format/Info : Free Lossless Audio Codec Codec ID : A_FLAC Duration : 26 min 52 s Bit rate mode : Variable Bit rate : 1 907 kb/s Channel(s) : 6 channels Channel layout : L R C LFE Ls Rs Sampling rate : 48.0 kHz Frame rate : 11.719 FPS (4096 SPF) Bit depth : 16 bits Compression mode : Lossless Delay relative to video : 1 s 1 ms Stream size : 367 MiB (17%) Title : English FLAC 5.1 Writing library : libFLAC 1.3.1 (2014-11-25) Language : English Default : Yes Forced : No MD5 of the unencoded content : 2EE1BE274987B7C55061A829BA9F7541 Audio #2 ID : 3 Format : FLAC Format/Info : Free Lossless Audio Codec Codec ID : A_FLAC Duration : 26 min 51 s Bit rate mode : Variable Bit rate : 835 kb/s Channel(s) : 2 channels Channel layout : L R Sampling rate : 48.0 kHz Frame rate : 11.719 FPS (4096 SPF) Bit depth : 16 bits Compression mode : Lossless Delay relative to video : 1 s 1 ms Stream size : 160 MiB (7%) Title : Japanese FLAC 2.0 Writing library : libFLAC 1.3.0 (2013-05-26) Language : Japanese Default : No Forced : No MD5 of the unencoded content : 19EFDE1F0C9448A5B823CB17924DBCAD Text #1 ID : 4 Format : ASS Codec ID : S_TEXT/ASS Codec ID/Info : Advanced Sub Station Alpha Duration : 25 min 8 s Bit rate : 709 b/s Frame rate : 0.673 FPS Count of elements : 1015 Compression mode : Lossless Stream size : 131 KiB (0%) Title : Signs & Songs (FFF/SCY) Language : English Default : Yes Forced : Yes Text #2 ID : 5 Format : ASS Codec ID : S_TEXT/ASS Codec ID/Info : Advanced Sub Station Alpha Duration : 26 min 49 s Bit rate : 775 b/s Frame rate : 0.903 FPS Count of elements : 1454 Compression mode : Lossless Stream size : 152 KiB (0%) Title : Full Subtitles (FFF/SCY) Language : English Default : No Forced : No Menu 00:00:01.001 : en:Prologue 00:01:44.104 : en:Opening 00:03:14.194 : en:Part A 00:10:47.647 : en:Eyecatch 00:10:57.657 : en:Part B 00:25:07.506 : en:Ending 00:26:37.596 : en:Preview ``` Dead end for a sucker that’s a sucker like me. 私のようなカモの行き止まりです。

File list

  • High.School.DxD.S02.1080p.BluRay.10-Bit.Dual-Audio.FLAC5.1.x265-YURASUKA
    • High.School.DxD.S02E01.1080p.BluRay.10-Bit.Dual-Audio.FLAC5.1.x265-YURASUKA.mkv (1.6 GiB)
    • High.School.DxD.S02E02.1080p.BluRay.10-Bit.Dual-Audio.FLAC5.1.x265-YURASUKA.mkv (1.7 GiB)
    • High.School.DxD.S02E03.1080p.BluRay.10-Bit.Dual-Audio.FLAC5.1.x265-YURASUKA.mkv (1.8 GiB)
    • High.School.DxD.S02E04.1080p.BluRay.10-Bit.Dual-Audio.FLAC5.1.x265-YURASUKA.mkv (1.7 GiB)
    • High.School.DxD.S02E05.1080p.BluRay.10-Bit.Dual-Audio.FLAC5.1.x265-YURASUKA.mkv (2.1 GiB)
    • High.School.DxD.S02E06.1080p.BluRay.10-Bit.Dual-Audio.FLAC5.1.x265-YURASUKA.mkv (1.8 GiB)
    • High.School.DxD.S02E07.1080p.BluRay.10-Bit.Dual-Audio.FLAC5.1.x265-YURASUKA.mkv (1.5 GiB)
    • High.School.DxD.S02E08.1080p.BluRay.10-Bit.Dual-Audio.FLAC5.1.x265-YURASUKA.mkv (1.6 GiB)
    • High.School.DxD.S02E09.1080p.BluRay.10-Bit.Dual-Audio.FLAC5.1.x265-YURASUKA.mkv (1.6 GiB)
    • High.School.DxD.S02E10.1080p.BluRay.10-Bit.Dual-Audio.FLAC5.1.x265-YURASUKA.mkv (1.4 GiB)
    • High.School.DxD.S02E11.1080p.BluRay.10-Bit.Dual-Audio.FLAC5.1.x265-YURASUKA.mkv (1.9 GiB)
    • High.School.DxD.S02E12.1080p.BluRay.10-Bit.Dual-Audio.FLAC5.1.x265-YURASUKA.mkv (1.9 GiB)
Title : Signs & Songs (FFF/SCY) Language English Default : Yes Forced : Yes Why?

Yurasuka (uploader)

User
That is what the forced flag is for. Anyone who is not marking their signs & songs track as forced is doing it wrong. If you have your preferred audio set to English it will automatically use the forced track. If you have your preferred audio set to Japanese it will automatically use the non-forced track. https://thewiki.moe/advanced/release-standards/#forced-subtitles As for why I set English as default instead of Japanese, it is because I originally looked at what CTR did and copied it. I do not even watch in English myself but my releases are geared towards people who use Plex, Jellyfin, or Emby and want a Netflix-like experience. I have thought about changing it but I think it makes more sense to keep it consistent across my releases. If you have your preferred language set to Japanese like I do you there is no functional difference.
Nice, thx a lot. Any chance for S3-S4 + OVA?