[MiraiAnime] Godannar (2003) [Complete] [BD 1080p x265 HEVC OPUS] [Dual-Audio] Season 1 2

Category:
Date:
2023-04-12 22:45 UTC
Submitter:
Seeders:
9
Information:
Leechers:
2
File size:
11.0 GiB
Completed:
951
Info hash:
5da2357aea3859bc08ba5f3c644c97b019318f50
|![](https://i.imgur.com/ibjfqQ0.jpg)| | :-----: | | [**Shinkon Gattai Godannar!! \| Shinkon Gattai Godannar!! - MyAnimeList.net**](https://myanimelist.net/anime/1103/Shinkon_Gattai_Godannar) | ___ #### **Information:** English audio had to be cut since the USBD for some reason didn't just create one of the worst looking bluray upscales, but also removed black frames from op and ed transitions. Thanks That being said, the JPBD doesn't really look that much better. Although it's definitely a better version, it's still far from something I'd like to spent 8 hours looking at (maybe at 2x speed). Subtitles are ocr'd and synched to the JPBD. (+signs) Video filters: edgefix, degrain, dehalo, addgrain, qtgmc Chapters are from the BDMV. Audio encoded with 256kbit/s (stereo) and 512kbit/s (6 channels). The english audio source does indeed sound as bad as the audio track in this release. Imagine spending money for this shit. If you want the source files of these, just ask. ___ ##### For requests or questions, join my (small) discord server here: **https://discord.gg/8n7H3ArdCW** ##### I highly suggest you to use [mpv](https://mpv.io/) for playback. ___ **Summary:** * signs, styled op/ed * cut english audio * encoded the audio tracks from PCM/DTS to OPUS (opusenc) * encoded and filtered video tracks to HEVC (x265, crf 25) * naming scheme matches [AniDB.net](https://anidb.net/1104) |Track-Type | Title | Attributes | | :-------------: |:-------------:| :-----:| |video|English|x265 HEVC 10bit 23.976FPS 1920x1080| |audio|Japanese|48.0kHz stereo OPUS| |audio|English|48.0kHz 5.1 OPUS (**default**)| |subtitles|Dialogue|ass| |subtitles|Sign&Songs|ass (**default**)| |chapters| ___ #### **Source:** **[BDMV](https://nyaa.si/view/728043)** - video, jpn-audio, chapters **[USBDMV](https://nyaa.si/view/1275995)** - eng-audio ___ #### **FFprobe:** ``` Input #0, matroska,webm, from 'Godannar (2003) - S01E01 - Wedding Bell on the Battle Ground.mkv': Metadata: creation_time : 2023-04-12T22:21:50.000000Z ENCODER : Lavf60.3.100 Duration: 00:24:03.96, start: -0.007000, bitrate: 2830 kb/s Chapters: Chapter #0:0: start 0.000000, end 157.031860 Metadata: title : Chapter 1 Chapter #0:1: start 157.031860, end 597.972350 Metadata: title : Chapter 2 Chapter #0:2: start 597.972350, end 1335.834500 Metadata: title : Chapter 3 Chapter #0:3: start 1335.834500, end 1427.008900 Metadata: title : Chapter 4 Chapter #0:4: start 1427.008900, end 1442.941500 Metadata: title : Chapter 5 Stream #0:0(jpn): Video: hevc (Main 10), yuv420p10le(tv, bt709), 1920x1080, SAR 1:1 DAR 16:9, 23.98 fps, 23.98 tbr, 1k tbn (default) Metadata: title : [BDMV] Japanese BPS : 2097932 DURATION : 00:24:02.942000000 NUMBER_OF_FRAMES: 34596 NUMBER_OF_BYTES : 378399328 _STATISTICS_WRITING_APP: mkvmerge v73.0.0 ('25 or 6 to 4') 64-bit _STATISTICS_WRITING_DATE_UTC: 2023-04-12 22:21:50 _STATISTICS_TAGS: BPS DURATION NUMBER_OF_FRAMES NUMBER_OF_BYTES Stream #0:1(jpn): Audio: opus, 48000 Hz, stereo, fltp Metadata: title : [BDMV] Japanese ENCODER : opusenc from opus-tools 0.2 ENCODER_OPTIONS : --bitrate 256k BPS : 249002 DURATION : 00:24:02.952000000 NUMBER_OF_FRAMES: 72148 NUMBER_OF_BYTES : 44912369 _STATISTICS_WRITING_APP: mkvmerge v73.0.0 ('25 or 6 to 4') 64-bit _STATISTICS_WRITING_DATE_UTC: 2023-04-12 22:21:50 _STATISTICS_TAGS: BPS DURATION NUMBER_OF_FRAMES NUMBER_OF_BYTES Stream #0:2(eng): Audio: opus, 48000 Hz, 5.1, fltp (default) Metadata: title : [USBD] English ENCODER : opusenc from opus-tools 0.2 ENCODER_OPTIONS : --bitrate 512k BPS : 470807 DURATION : 00:24:03.958000000 NUMBER_OF_FRAMES: 72198 NUMBER_OF_BYTES : 84978230 _STATISTICS_WRITING_APP: mkvmerge v73.0.0 ('25 or 6 to 4') 64-bit _STATISTICS_WRITING_DATE_UTC: 2023-04-12 22:21:50 _STATISTICS_TAGS: BPS DURATION NUMBER_OF_FRAMES NUMBER_OF_BYTES Stream #0:3(eng): Subtitle: ass Metadata: title : [MiraiAnime] Dialogue BPS : 176 DURATION : 00:24:01.910000000 NUMBER_OF_FRAMES: 573 NUMBER_OF_BYTES : 31883 _STATISTICS_WRITING_APP: mkvmerge v73.0.0 ('25 or 6 to 4') 64-bit _STATISTICS_WRITING_DATE_UTC: 2023-04-12 22:21:50 _STATISTICS_TAGS: BPS DURATION NUMBER_OF_FRAMES NUMBER_OF_BYTES Stream #0:4(eng): Subtitle: ass (default) Metadata: title : [MiraiAnime] Sign&Songs BPS : 44 DURATION : 00:24:01.910000000 NUMBER_OF_FRAMES: 104 NUMBER_OF_BYTES : 7934 _STATISTICS_WRITING_APP: mkvmerge v73.0.0 ('25 or 6 to 4') 64-bit _STATISTICS_WRITING_DATE_UTC: 2023-04-12 22:21:50 _STATISTICS_TAGS: BPS DURATION NUMBER_OF_FRAMES NUMBER_OF_BYTES Stream #0:5: Attachment: ttf Metadata: filename : bahnschrift.ttf mimetype : application/x-truetype-font Stream #0:6: Attachment: ttf Metadata: filename : CronosPro_SemiboldDispIt.otf mimetype : application/x-font-opentype Stream #0:7: Attachment: ttf Metadata: filename : arialbd.ttf mimetype : application/x-truetype-font Stream #0:8: Attachment: ttf Metadata: filename : Anko_Medium.otf mimetype : application/x-font-opentype Stream #0:9: Attachment: ttf Metadata: filename : Androgyne_TB.otf mimetype : application/x-font-opentype Stream #0:10: Attachment: ttf Metadata: filename : FERTIGOPRO_REGULAR.otf mimetype : application/x-font-opentype Stream #0:11: Attachment: ttf Metadata: filename : cgor65w_0.ttf mimetype : application/x-truetype-font Stream #0:12: Attachment: ttf Metadata: filename : PFREMINDERPRO_MEDIUM.ttf mimetype : application/x-truetype-font ``` *** #### **I've included two scripts. You can either deactivate the english-audio and sign&songs subs, or completely remove them. Please read-me.txt** *** #### **Many thanks to [Anonymous] and [npz](https://nyaa.si/user/npz) for making this possible.** ___ If you find anything that seems out of the ordinary, just post a comment or in my discord and I'll take a look at it.

File list

  • Godannar (2003) [Complete] [BD 1080p HEVC OPUS] [Dual-Audio]
    • Season 1
      • Godannar (2003) - S01E01 - Wedding Bell on the Battle Ground.mkv (487.2 MiB)
      • Godannar (2003) - S01E02 - Flaming Virgin Road.mkv (483.4 MiB)
      • Godannar (2003) - S01E03 - Battle Royal Honeymoon.mkv (478.1 MiB)
      • Godannar (2003) - S01E04 - Shizuru's Comeback.mkv (464.9 MiB)
      • Godannar (2003) - S01E05 - A Girl from the Sky.mkv (432.5 MiB)
      • Godannar (2003) - S01E06 - The End of the Dream.mkv (404.6 MiB)
      • Godannar (2003) - S01E07 - Death by Reminiscing.mkv (463.0 MiB)
      • Godannar (2003) - S01E08 - The Graceful Shooting Star.mkv (446.8 MiB)
      • Godannar (2003) - S01E09 - The Castaway Survival.mkv (447.4 MiB)
      • Godannar (2003) - S01E10 - Lu Takes Off.mkv (409.2 MiB)
      • Godannar (2003) - S01E11 - A Flawless Departure.mkv (460.8 MiB)
      • Godannar (2003) - S01E12 - Those Who Have Departed.mkv (429.6 MiB)
      • Godannar (2003) - S01E13 - Last First-Kiss.mkv (397.2 MiB)
    • Season 2
      • Godannar (2003) - S02E01 - The Reviving Soul.mkv (491.2 MiB)
      • Godannar (2003) - S02E02 - New Confession.mkv (454.8 MiB)
      • Godannar (2003) - S02E03 - Its Name is Go Okusaer!.mkv (430.6 MiB)
      • Godannar (2003) - S02E04 - Tonko, my Love.mkv (333.4 MiB)
      • Godannar (2003) - S02E05 - Ice-cold Smile.mkv (420.9 MiB)
      • Godannar (2003) - S02E06 - Genesister out of Control.mkv (376.3 MiB)
      • Godannar (2003) - S02E07 - Sorrowful Song of Plump Blossoms.mkv (441.3 MiB)
      • Godannar (2003) - S02E08 - Godannar Ground Order!.mkv (365.5 MiB)
      • Godannar (2003) - S02E09 - Crash! Dannar vs Gainer.mkv (402.4 MiB)
      • Godannar (2003) - S02E10 - Dannar Base SOS!!.mkv (435.6 MiB)
      • Godannar (2003) - S02E11 - After the Mortal Combat.mkv (409.9 MiB)
      • Godannar (2003) - S02E12 - The Eternal Couple.mkv (467.0 MiB)
      • Godannar (2003) - S02E13 - The Inevitable Tomorrow.mkv (389.3 MiB)
    • Remove-Dub.bat (5.7 KiB)
    • Remove-Dub.sh (5.7 KiB)
    • Switch-to-Sub.bat (6.8 KiB)
    • Switch-to-Sub.sh (6.8 KiB)
    • read-me.txt (565 Bytes)
@ThatWaxEllo Thank you very much