[neoHEVC] Do It Yourself!! [Season 1] [BD 1080p x265 HEVC AAC]

Category:
Date:
2023-04-07 16:55 UTC
Submitter:
Seeders:
50
Information:
Leechers:
4
File size:
3.8 GiB
Completed:
1831
Info hash:
9368b43554ca48471b80869002eb790be1f556de
![](https://i.imgur.com/RBlGp48.png) *Come hang out in **[Discord](https://discord.gg/47Q7FdB54e)*** #### **[Do It Yourself!! [Season 1]](https://myanimelist.net/anime/48542/Do_It_Yourself)** ▶️ **[Trailer](https://www.youtube.com/watch?v=oNM8tKFZkQU)** --- **Synopsis** The Fourth Industrial Revolution has led to the development of cutting-edge technologies that have rapidly evolved the world. As a result, schools have begun incorporating these technologies into their curriculum, leaving behind the ways of the old. One such institution is the elite Yuyu Girls' Vocational High School, where both Serufu Yua and her childhood friend, Miku "Purin" Suride, have applied. Although the tech-savvy Purin is accepted to Yuyu High, the accident-prone Serufu is rejected and enters the traditional Gatagata Girls' High School instead, driving a wedge into their friendship. On her way to class one day, Serufu gets into a bike accident, and Rei Yasaku, a passerby who attends the same school, fixes her damaged bicycle. Serufu later finds out that Rei has a passion for old-fashioned crafts and is the head of the school's Do-It-Yourself (DIY) Club—which is in danger of closing due to a lack of members. Realizing that this may be her chance to repair her relationship with Purin, Serufu joins the club in hopes of creating projects that could bring them together once more. As the DIY Club welcomes new faces, Serufu learns to build not only handicrafts but also new friendships along the way! ![](https://i.imgur.com/XY3j2kF.png) --- **Source** 🗃️ Video and JPN Audio (JPN BDMV): **[[KoushinRip]](https://nyaa.si/view/1623701)** 🗃️ Subtitles: **[[MiraiAnime]](https://nyaa.si/view/1617278)** 💬 *Subtitles Info: [MiraiAnime]* *Thank you all for making this possible <3* --- **Media Info** ``` General Unique ID : 274813867454502663678877858863502994641 (0xCEBF39C3F58A11D3D0ED1773033E2CD1) Complete name : Do It Yourself!! - S01E01.mkv Format : Matroska Format version : Version 4 File size : 300 MiB Duration : 23 min 42 s Overall bit rate : 1 770 kb/s Movie name : Do It Yourself!! - S01E01 Encoded date : UTC 2023-04-07 10:02:54 Writing application : mkvmerge v72.0.0 ('Minuano (Six-eight)') 64-bit Writing library : libebml v1.4.4 + libmatroska v1.7.1 / Lavf59.27.100 Attachments : DFHeiA.ttc / Blogger_Sans_Medium.ttf / 汉仪旗黑_80S_ExtraBold.0.COGDB1NJ.ttf / KG_Turning_Tables.ttf / ARRBD_ECL.ttf / Blogger_Sans_Light.ttf / times.ttf / syunka2.ttf / hapole_pencil.ttf / arial.ttf / LT_italic.ttf / Kruede_W90_Bold.ttf Video ID : 1 Format : HEVC Format/Info : High Efficiency Video Coding Format profile : Main 10@L4@High Codec ID : V_MPEGH/ISO/HEVC Duration : 23 min 42 s Bit rate : 1 583 kb/s Width : 1 920 pixels Height : 1 080 pixels Display aspect ratio : 16:9 Frame rate mode : Constant Frame rate : 23.976 (24000/1001) FPS Color space : YUV Chroma subsampling : 4:2:0 (Type 0) Bit depth : 10 bits Bits/(Pixel*Frame) : 0.032 Stream size : 268 MiB (89%) Writing library : x265 3.5+1-f0c1022b6:[Windows][GCC 10.2.0][64 bit] 10bit Encoding settings : cpuid=1111039 / frame-threads=5 / numa-pools=32 / wpp / no-pmode / no-pme / no-psnr / no-ssim / log-level=2 / input-csp=1 / input-res=1920x1080 / interlace=0 / total-frames=0 / level-idc=40 / high-tier=1 / uhd-bd=0 / ref=5 / no-allow-non-conformance / no-repeat-headers / annexb / no-aud / no-hrd / info / hash=0 / no-temporal-layers / open-gop / min-keyint=24 / keyint=240 / gop-lookahead=0 / bframes=16 / b-adapt=2 / b-pyramid / bframe-bias=0 / rc-lookahead=120 / lookahead-slices=4 / scenecut=40 / hist-scenecut=0 / radl=0 / no-splice / no-intra-refresh / ctu=64 / min-cu-size=8 / rect / no-amp / max-tu-size=32 / tu-inter-depth=1 / tu-intra-depth=1 / limit-tu=0 / rdoq-level=1 / dynamic-rd=0.00 / no-ssim-rd / signhide / no-tskip / nr-intra=0 / nr-inter=0 / no-constrained-intra / no-strong-intra-smoothing / max-merge=3 / limit-refs=3 / limit-modes / me=3 / subme=3 / merange=57 / temporal-mvp / no-frame-dup / no-hme / weightp / no-weightb / no-analyze-src-pics / deblock=-1:-1 / no-sao / no-sao-non-deblock / rd=4 / selective-sao=0 / no-early-skip / rskip / no-fast-intra / no-tskip-fast / no-cu-lossless / no-b-intra / no-splitrd-skip / rdpenalty=0 / psy-rd=2.00 / psy-rdoq=2.00 / no-rd-refine / no-lossless / cbqpoffs=0 / crqpoffs=0 / rc=crf / crf=23.5 / qcomp=0.60 / qpstep=4 / stats-write=0 / stats-read=0 / vbv-maxrate=30000 / vbv-bufsize=30000 / vbv-init=0.9 / min-vbv-fullness=50.0 / max-vbv-fullness=80.0 / crf-max=0.0 / crf-min=0.0 / ipratio=1.40 / pbratio=1.30 / aq-mode=3 / aq-strength=0.80 / cutree / zone-count=0 / no-strict-cbr / qg-size=32 / no-rc-grain / qpmax=69 / qpmin=0 / no-const-vbv / sar=1 / overscan=0 / videoformat=5 / range=0 / colorprim=1 / transfer=1 / colormatrix=1 / chromaloc=1 / chromaloc-top=0 / chromaloc-bottom=0 / display-window=0 / cll=0,0 / min-luma=0 / max-luma=1023 / log2-max-poc-lsb=8 / vui-timing-info / vui-hrd-info / slices=1 / no-opt-qp-pps / no-opt-ref-list-length-pps / no-multi-pass-opt-rps / scenecut-bias=0.05 / hist-threshold=0.03 / no-opt-cu-delta-qp / no-aq-motion / no-hdr10 / no-hdr10-opt / no-dhdr10-opt / no-idr-recovery-sei / analysis-reuse-level=0 / analysis-save-reuse-level=0 / analysis-load-reuse-level=0 / scale-factor=0 / refine-intra=0 / refine-inter=0 / refine-mv=1 / refine-ctu-distortion=0 / no-limit-sao / ctu-info=0 / no-lowpass-dct / refine-analysis-type=0 / copy-pic=1 / max-ausize-factor=1.0 / no-dynamic-refine / no-single-sei / no-hevc-aq / no-svt / no-field / qp-adaptation-range=1.00 / scenecut-aware-qp=0conformance-window-offsets / right=0 / bottom=0 / decoder-max-rate=0 / no-vbv-live-multi-pass Default : Yes Forced : No Color range : Limited Color primaries : BT.709 Transfer characteristics : BT.709 Matrix coefficients : BT.709 Audio ID : 2 Format : AAC LC Format/Info : Advanced Audio Codec Low Complexity Codec ID : A_AAC-2 Duration : 23 min 42 s Bit rate : 119 kb/s Channel(s) : 2 channels Channel layout : L R Sampling rate : 48.0 kHz Frame rate : 46.875 FPS (1024 SPF) Compression mode : Lossy Stream size : 20.2 MiB (7%) Title : Japanese Language : Japanese Default : Yes Forced : No Text ID : 3 Format : ASS Codec ID : S_TEXT/ASS Codec ID/Info : Advanced Sub Station Alpha Duration : 23 min 26 s Bit rate : 2 046 b/s Frame rate : 1.821 FPS Count of elements : 2561 Compression mode : Lossless Stream size : 351 KiB (0%) Title : Dialogue Language : English Default : Yes Forced : No Menu 00:00:00.000 : :Episode 1: What is DIY? - Part A 00:02:19.000 : :Episode 1: What is DIY? - Part B 00:11:57.000 : :Episode 1: What is DIY? - Part C 00:22:05.000 : :ED 00:23:35.000 : :PV ```

File list

  • [neoHEVC] Do It Yourself!! [Season 1] [BD 1080p x265 HEVC AAC]
    • Do It Yourself!! - S01E01.mkv (300.0 MiB)
    • Do It Yourself!! - S01E02.mkv (320.2 MiB)
    • Do It Yourself!! - S01E03.mkv (327.5 MiB)
    • Do It Yourself!! - S01E04.mkv (278.3 MiB)
    • Do It Yourself!! - S01E05.mkv (324.0 MiB)
    • Do It Yourself!! - S01E06.mkv (346.2 MiB)
    • Do It Yourself!! - S01E07.mkv (301.2 MiB)
    • Do It Yourself!! - S01E08.mkv (331.4 MiB)
    • Do It Yourself!! - S01E09.mkv (346.5 MiB)
    • Do It Yourself!! - S01E10.mkv (355.7 MiB)
    • Do It Yourself!! - S01E11.mkv (328.5 MiB)
    • Do It Yourself!! - S01E12.mkv (355.9 MiB)