[neoHEVC] Prima Doll [Season 1] [BD 1080p x265 HEVC AAC]

Category:
Date:
2023-04-01 13:41 UTC
Submitter:
Seeders:
6
Information:
Leechers:
0
File size:
2.4 GiB
Completed:
540
Info hash:
6dc91f61e1f040dec53f90758e737b486e27aebe
![](https://i.imgur.com/RBlGp48.png) *Come hang out in **[Discord](https://discord.gg/47Q7FdB54e)*** #### **[Prima Doll [Season 1]](https://myanimelist.net/anime/50917/Prima_Doll)** ▶️ **[Trailer](https://www.youtube.com/watch?v=TNaXVxfYCZ0)** --- **Notes:** . Resampled script . Restyled script and changed fonts . Retimed and restyled all OP & ED and insert songs --- **Synopsis** Black Cat Cafe is located in the fifth ward of the Imperial Capital. Having lost their purpose after the war ended a few years prior, advanced mechanical dolls known as Automata have been restored and now work at the cafe wearing elegant kimonos. While they adjust to the peaceful world, events of the past continue to haunt the Automata, preventing them from letting go of the responsibility they once held. Among the Automata working at Black Cat Cafe is the recently restored Haizakura, who has lost her memories during a reset. Her identity and role in this unfamiliar world are a mystery to her, but one thing is certain—she loves to sing. With never-ending curiosity and beautiful songs to guide them, Haizakura and the Automata search for their new purpose together, supporting each other no matter how rigorous that endeavor might be. ![](https://i.imgur.com/pI5md6P.png) --- **Source** 🗃️ Video and JPN Audio (JPN BDMV): **[[KoushinRip]](https://nyaa.si/view/1595543)** 🗃️ Subtitles: **[[Zafkiel]](https://nyaa.si/view/1654795)** 💬 *Subtitles Info: [Zafkiel] Base [Me] Edits, see notes* *Thank you all for making this possible <3* --- **Media Info** ``` General Unique ID : 277759276043256376186300735778251192747 (0xD0F67D9EEDA25077FCA3661E6391B9AB) Complete name : Prima Doll - S01E01.mkv Format : Matroska Format version : Version 4 File size : 190 MiB Duration : 23 min 34 s Overall bit rate : 1 126 kb/s Movie name : Prima Doll - S01E01 Encoded date : UTC 2023-04-01 13:09:30 Writing application : mkvmerge v72.0.0 ('Minuano (Six-eight)') 64-bit Writing library : libebml v1.4.4 + libmatroska v1.7.1 / Lavf58.76.100 Attachments : Qlassik_TB.ttf / Zagora.ttf / CRONOSPRO-BOLD.OTF / MADE Tommy Soft Regular PERSONAL USE.otf Video ID : 1 Format : HEVC Format/Info : High Efficiency Video Coding Format profile : Main 10@L4@High Codec ID : V_MPEGH/ISO/HEVC Duration : 23 min 34 s Bit rate : 1 001 kb/s Width : 1 920 pixels Height : 1 080 pixels Display aspect ratio : 16:9 Frame rate mode : Constant Frame rate : 23.976 (24000/1001) FPS Color space : YUV Chroma subsampling : 4:2:0 Bit depth : 10 bits Bits/(Pixel*Frame) : 0.020 Stream size : 169 MiB (89%) Writing library : x265 3.5+1-f0c1022b6:[Windows][GCC 9.2.0][64 bit] 10bit Encoding settings : cpuid=1111039 / frame-threads=2 / numa-pools=4 / wpp / no-pmode / no-pme / no-psnr / no-ssim / log-level=2 / input-csp=1 / input-res=1920x1080 / interlace=0 / total-frames=0 / level-idc=40 / high-tier=1 / uhd-bd=0 / ref=5 / no-allow-non-conformance / no-repeat-headers / annexb / no-aud / no-hrd / info / hash=0 / no-temporal-layers / open-gop / min-keyint=24 / keyint=240 / gop-lookahead=0 / bframes=16 / b-adapt=2 / b-pyramid / bframe-bias=0 / rc-lookahead=120 / lookahead-slices=4 / scenecut=40 / hist-scenecut=0 / radl=0 / no-splice / no-intra-refresh / ctu=64 / min-cu-size=8 / rect / no-amp / max-tu-size=32 / tu-inter-depth=1 / tu-intra-depth=1 / limit-tu=0 / rdoq-level=1 / dynamic-rd=0.00 / no-ssim-rd / signhide / no-tskip / nr-intra=0 / nr-inter=0 / no-constrained-intra / no-strong-intra-smoothing / max-merge=3 / limit-refs=3 / limit-modes / me=3 / subme=3 / merange=57 / temporal-mvp / no-frame-dup / no-hme / weightp / no-weightb / no-analyze-src-pics / deblock=-1:-1 / no-sao / no-sao-non-deblock / rd=4 / selective-sao=0 / no-early-skip / rskip / no-fast-intra / no-tskip-fast / no-cu-lossless / no-b-intra / no-splitrd-skip / rdpenalty=0 / psy-rd=2.00 / psy-rdoq=2.00 / no-rd-refine / no-lossless / cbqpoffs=0 / crqpoffs=0 / rc=crf / crf=23.0 / qcomp=0.60 / qpstep=4 / stats-write=0 / stats-read=0 / vbv-maxrate=30000 / vbv-bufsize=30000 / vbv-init=0.9 / min-vbv-fullness=50.0 / max-vbv-fullness=80.0 / crf-max=0.0 / crf-min=0.0 / ipratio=1.40 / pbratio=1.30 / aq-mode=3 / aq-strength=0.80 / cutree / zone-count=0 / no-strict-cbr / qg-size=32 / no-rc-grain / qpmax=69 / qpmin=0 / no-const-vbv / sar=1 / overscan=0 / videoformat=5 / range=0 / colorprim=1 / transfer=1 / colormatrix=1 / chromaloc=0 / display-window=0 / cll=0,0 / min-luma=0 / max-luma=1023 / log2-max-poc-lsb=8 / vui-timing-info / vui-hrd-info / slices=1 / no-opt-qp-pps / no-opt-ref-list-length-pps / no-multi-pass-opt-rps / scenecut-bias=0.05 / hist-threshold=0.03 / no-opt-cu-delta-qp / no-aq-motion / no-hdr10 / no-hdr10-opt / no-dhdr10-opt / no-idr-recovery-sei / analysis-reuse-level=0 / analysis-save-reuse-level=0 / analysis-load-reuse-level=0 / scale-factor=0 / refine-intra=0 / refine-inter=0 / refine-mv=1 / refine-ctu-distortion=0 / no-limit-sao / ctu-info=0 / no-lowpass-dct / refine-analysis-type=0 / copy-pic=1 / max-ausize-factor=1.0 / no-dynamic-refine / no-single-sei / no-hevc-aq / no-svt / no-field / qp-adaptation-range=1.00 / scenecut-aware-qp=0conformance-window-offsets / right=0 / bottom=0 / decoder-max-rate=0 / no-vbv-live-multi-pass Default : Yes Forced : No Color range : Limited Color primaries : BT.709 Transfer characteristics : BT.709 Matrix coefficients : BT.709 Audio ID : 2 Format : AAC LC Format/Info : Advanced Audio Codec Low Complexity Codec ID : A_AAC-2 Duration : 23 min 34 s Bit rate : 121 kb/s Channel(s) : 2 channels Channel layout : L R Sampling rate : 48.0 kHz Frame rate : 46.875 FPS (1024 SPF) Compression mode : Lossy Stream size : 20.4 MiB (11%) Title : Japanese Language : Japanese Default : Yes Forced : No Text ID : 3 Format : ASS Codec ID : S_TEXT/ASS Codec ID/Info : Advanced Sub Station Alpha Duration : 23 min 33 s Bit rate : 120 b/s Frame rate : 0.221 FPS Count of elements : 312 Compression mode : Lossless Stream size : 20.7 KiB (0%) Title : Dialogue Language : English Default : Yes Forced : No Menu 00:00:00.000 : :Intro 00:01:34.990 : :Episode 00:22:04.930 : :ED ```

File list

  • [neoHEVC] Prima Doll [Season 1] [BD 1080p x265 HEVC AAC]
    • Prima Doll - S01E01.mkv (190.0 MiB)
    • Prima Doll - S01E02.mkv (211.7 MiB)
    • Prima Doll - S01E03.mkv (220.5 MiB)
    • Prima Doll - S01E04.mkv (217.3 MiB)
    • Prima Doll - S01E05.mkv (165.7 MiB)
    • Prima Doll - S01E06.mkv (209.9 MiB)
    • Prima Doll - S01E07.mkv (192.2 MiB)
    • Prima Doll - S01E08.mkv (211.2 MiB)
    • Prima Doll - S01E09.mkv (179.9 MiB)
    • Prima Doll - S01E10.mkv (229.8 MiB)
    • Prima Doll - S01E11.mkv (211.5 MiB)
    • Prima Doll - S01E12.mkv (223.2 MiB)
Nice! Been waiting for a BD rip, thank you!