Monthly.Girls.Nozaki-kun.S01.v2.1080p.BluRay.10-Bit.Dual-Audio.FLAC2.0.x265-YURASUKA (Gekkan Shoujo Nozaki-kun)

Category:
Date:
2023-04-01 06:49 UTC
Submitter:
Seeders:
14
Information:
Leechers:
0
File size:
13.5 GiB
Completed:
724
Info hash:
9fb993f8e29cf26a2b964faf85b9b7680fcd1a21
Monthly Girls' Nozaki-kun / Gekkan Shoujo Nozaki-kun Season 1 (2014) v2 v2 Changes: Re-encoded video (AA+deband+better settings, see comparison) A/V Source: [Anon@Nyaa](https://nyaa.si/view/1244722) (JPBD) Subtitles + English Audio: [MobyJJ@Nyaa](https://nyaa.si/view/1274434) (Quincentuple) [Encode Comparison](https://slow.pics/c/wvADxQUf) ``` Complete name : Monthly.Girls.Nozaki-kun.S01E09.v2.1080p.BluRay.10-Bit.Dual-Audio.FLAC2.0.x265-YURASUKA.mkv Format : Matroska Format version : Version 4 File size : 1.28 GiB Duration : 23 min 58 s Overall bit rate mode : Variable Overall bit rate : 7 619 kb/s Movie name : Monthly Girls' Nozaki-kun - S01E09 - YURASUKA Encoded date : UTC 2023-04-01 05:37:17 Writing application : mkvmerge v75.0.0 ('Goliath') 64-bit Writing library : libebml v1.4.4 + libmatroska v1.7.1 Attachments : ALBED.TTF / AmateurComic.ttf / ARLRDBD.TTF / AvenirLTStd-Black.otf / Big Fat Marker.ttf / calibrib.ttf / calibriz.ttf / erasdust.ttf / marker / pala.ttf / palab.ttf / Passing Notes.otf / pencilfied.ttf / Profile-Regular.otf / RaysHand-Regular.ttf / RolandBecker Bold.ttf / scott_.ttf / segoeprb.ttf / SEMPB_.TTF / ufonts.com_chianti-win95bt.ttf / AdobeGothicStd-Bold.ttf / ALBED_.TTF / Alberta_Regular.ttf / ALMAGRO.TTF / AmateurComic.otf / animeace2_reg.otf / Arial Rounded MT_0.ttf / ARLRDBD_1.TTF / AuriolLTStd-Black.otf / Big Fat Marker_0.ttf / calibri.otf / calibrib.otf / calibrii.otf / calibril.otf / calibrili.otf / calibriz.otf / Disney_Simple.ttf / edo.ttf / EFN_OknoFont.ttf / ERASDUS0.TTF / GothamRnd-Bold.otf / GothamRnd-BoldIta.otf / GothamRnd-MedIta.otf / GothamRnd-Medium.otf / Marker SD 1.2.ttf / Montara-BoldGothic.otf / Montara-Gothic.otf / Niew CroMagnon.ttf / NothingYouCouldSay.otf / OpenSans-Bold.otf / OpenSans-Regular.otf / OpenSans-Semibold.otf / pala.otf / palabi.otf / palai.otf / Palatino Linotype Bold.otf / PAPEJE.TTF / Passing Notes_0.otf / Pen_of_Truth___FREE_FONT_by_Sonira.ttf / Pinguino.ttf / plantc.ttf / PLASTIC TOMATO.TTF / Profile-Medium.otf / Prototype.ttf / raavi.otf / raavib.otf / RAVIE.TTF / RaysHand-Regular_0.ttf / rexlia rg.otf / RolandBecker Bold_0.ttf / RolandBecker_0.ttf / RubThis.TTF / scott__.ttf / segoepr.otf / segoeprb.otf / SEMPB__.TTF / SEMPER_.TTF / SEMPI__.TTF / AmateurComic_0.ttf / GothamRnd-Bold_0.otf / GothamRnd-BoldIta_0.otf / GothamRnd-MedIta_1.otf / GothamRnd-Medium_1.otf / OpenSans-Bold.ttf / OpenSans-Regular.ttf / OpenSans-Semibold.ttf / ufonts.com_cc_astro_city.ttf Video ID : 1 Format : HEVC Format/Info : High Efficiency Video Coding Format profile : Main 10@L5@Main Codec ID : V_MPEGH/ISO/HEVC Duration : 23 min 57 s Bit rate : 6 032 kb/s Width : 1 920 pixels Height : 1 080 pixels Display aspect ratio : 16:9 Frame rate mode : Constant Frame rate : 23.976 (24000/1001) FPS Color space : YUV Chroma subsampling : 4:2:0 Bit depth : 10 bits Bits/(Pixel*Frame) : 0.121 Stream size : 1.01 GiB (79%) Title : YURASUKA 1080p x265 v2 Writing library : x265 3.5:[Linux][GCC 11.2.0][64 bit] 10bit Encoding settings : cpuid=1111039 / frame-threads=4 / numa-pools=24 / wpp / no-pmode / no-pme / no-psnr / no-ssim / log-level=2 / input-csp=1 / input-res=1920x1080 / interlace=0 / total-frames=0 / level-idc=0 / high-tier=1 / uhd-bd=0 / ref=6 / no-allow-non-conformance / no-repeat-headers / annexb / no-aud / no-hrd / info / hash=0 / no-temporal-layers / open-gop / min-keyint=1 / keyint=360 / gop-lookahead=0 / bframes=16 / b-adapt=2 / b-pyramid / bframe-bias=0 / rc-lookahead=72 / lookahead-slices=4 / scenecut=40 / hist-scenecut=0 / radl=0 / no-splice / no-intra-refresh / ctu=32 / min-cu-size=8 / rect / amp / max-tu-size=32 / tu-inter-depth=4 / tu-intra-depth=4 / limit-tu=0 / rdoq-level=2 / dynamic-rd=4.00 / no-ssim-rd / signhide / tskip / nr-intra=0 / nr-inter=0 / no-constrained-intra / strong-intra-smoothing / max-merge=3 / limit-refs=3 / limit-modes / me=3 / subme=7 / merange=57 / temporal-mvp / no-frame-dup / no-hme / weightp / weightb / no-analyze-src-pics / deblock=0:0 / no-sao / no-sao-non-deblock / rd=4 / selective-sao=0 / no-early-skip / rskip / no-fast-intra / no-tskip-fast / no-cu-lossless / b-intra / no-splitrd-skip / rdpenalty=0 / psy-rd=2.00 / psy-rdoq=2.00 / no-rd-refine / no-lossless / cbqpoffs=0 / crqpoffs=0 / rc=crf / crf=16.0 / qcomp=0.72 / qpstep=4 / stats-write=0 / stats-read=0 / vbv-maxrate=20000 / vbv-bufsize=20000 / vbv-init=0.9 / min-vbv-fullness=50.0 / max-vbv-fullness=80.0 / crf-max=0.0 / crf-min=0.0 / ipratio=1.40 / pbratio=1.30 / aq-mode=3 / aq-strength=0.85 / cutree / zone-count=0 / no-strict-cbr / qg-size=32 / no-rc-grain / qpmax=69 / qpmin=0 / no-const-vbv / sar=0 / overscan=0 / videoformat=5 / range=0 / colorprim=1 / transfer=1 / colormatrix=1 / chromaloc=0 / display-window=0 / cll=0,0 / min-luma=0 / max-luma=1023 / log2-max-poc-lsb=8 / vui-timing-info / vui-hrd-info / slices=1 / no-opt-qp-pps / no-opt-ref-list-length-pps / no-multi-pass-opt-rps / scenecut-bias=0.05 / hist-threshold=0.03 / no-opt-cu-delta-qp / no-aq-motion / no-hdr10 / no-hdr10-opt / no-dhdr10-opt / no-idr-recovery-sei / analysis-reuse-level=0 / analysis-save-reuse-level=0 / analysis-load-reuse-level=0 / scale-factor=0 / refine-intra=0 / refine-inter=0 / refine-mv=1 / refine-ctu-distortion=0 / no-limit-sao / ctu-info=0 / no-lowpass-dct / refine-analysis-type=0 / copy-pic=1 / max-ausize-factor=1.0 / no-dynamic-refine / no-single-sei / no-hevc-aq / no-svt / no-field / qp-adaptation-range=1.00 / scenecut-aware-qp=0conformance-window-offsets / right=0 / bottom=0 / decoder-max-rate=0 / no-vbv-live-multi-pass Language : Japanese Default : Yes Forced : No Color range : Limited Color primaries : BT.709 Transfer characteristics : BT.709 Matrix coefficients : BT.709 Audio #1 ID : 2 Format : FLAC Format/Info : Free Lossless Audio Codec Codec ID : A_FLAC Duration : 23 min 57 s Bit rate mode : Variable Bit rate : 690 kb/s Channel(s) : 2 channels Channel layout : L R Sampling rate : 48.0 kHz Frame rate : 11.719 FPS (4096 SPF) Bit depth : 16 bits Compression mode : Lossless Delay relative to video : 275 ms Stream size : 118 MiB (9%) Title : English FLAC 2.0 Writing library : libFLAC 1.2.1 (UTC 2007-09-17) Language : English Default : Yes Forced : No MD5 of the unencoded content : A224506DC6BE975B147D62C49D54C5AD Audio #2 ID : 3 Format : FLAC Format/Info : Free Lossless Audio Codec Codec ID : A_FLAC Duration : 23 min 57 s Bit rate mode : Variable Bit rate : 797 kb/s Channel(s) : 2 channels Channel layout : L R Sampling rate : 48.0 kHz Frame rate : 10.417 FPS (4608 SPF) Bit depth : 16 bits Compression mode : Lossless Stream size : 137 MiB (10%) Title : Japanese FLAC 2.0 Language : Japanese Default : No Forced : No MD5 of the unencoded content : 8F21276ECC721FFBEECBF1ECDF64E177 Text #1 Format : ASS Title : Signs & Songs [Moby JJ] Language : English Default : Yes Forced : Yes Text #2 Format : ASS Title : Full Subtitles [Quincetuple] Language : English Default : No Forced : No Menu 00:00:00.000 : en:Intro 00:00:44.044 : en:Opening 00:02:14.009 : en:Part A 00:09:42.081 : en:Part B 00:20:30.062 : en:Ending 00:22:00.110 : en:Part C 00:23:41.086 : en:Preview ``` Dead end for a sucker that’s a sucker like me. 私のようなカモの行き止まりです。

File list

  • Monthly.Girls.Nozaki-kun.S01.v2.1080p.BluRay.10-Bit.Dual-Audio.FLAC2.0.x265-YURASUKA
    • Monthly.Girls.Nozaki-kun.S01E01.v2.1080p.BluRay.10-Bit.Dual-Audio.FLAC2.0.x265-YURASUKA.mkv (1.1 GiB)
    • Monthly.Girls.Nozaki-kun.S01E02.v2.1080p.BluRay.10-Bit.Dual-Audio.FLAC2.0.x265-YURASUKA.mkv (1.2 GiB)
    • Monthly.Girls.Nozaki-kun.S01E03.v2.1080p.BluRay.10-Bit.Dual-Audio.FLAC2.0.x265-YURASUKA.mkv (1007.1 MiB)
    • Monthly.Girls.Nozaki-kun.S01E04.v2.1080p.BluRay.10-Bit.Dual-Audio.FLAC2.0.x265-YURASUKA.mkv (1.1 GiB)
    • Monthly.Girls.Nozaki-kun.S01E05.v2.1080p.BluRay.10-Bit.Dual-Audio.FLAC2.0.x265-YURASUKA.mkv (1.0 GiB)
    • Monthly.Girls.Nozaki-kun.S01E06.v2.1080p.BluRay.10-Bit.Dual-Audio.FLAC2.0.x265-YURASUKA.mkv (1.2 GiB)
    • Monthly.Girls.Nozaki-kun.S01E07.v2.1080p.BluRay.10-Bit.Dual-Audio.FLAC2.0.x265-YURASUKA.mkv (1.2 GiB)
    • Monthly.Girls.Nozaki-kun.S01E08.v2.1080p.BluRay.10-Bit.Dual-Audio.FLAC2.0.x265-YURASUKA.mkv (1.2 GiB)
    • Monthly.Girls.Nozaki-kun.S01E09.v2.1080p.BluRay.10-Bit.Dual-Audio.FLAC2.0.x265-YURASUKA.mkv (1.3 GiB)
    • Monthly.Girls.Nozaki-kun.S01E10.v2.1080p.BluRay.10-Bit.Dual-Audio.FLAC2.0.x265-YURASUKA.mkv (1.2 GiB)
    • Monthly.Girls.Nozaki-kun.S01E11.v2.1080p.BluRay.10-Bit.Dual-Audio.FLAC2.0.x265-YURASUKA.mkv (1.0 GiB)
    • Monthly.Girls.Nozaki-kun.S01E12.v2.1080p.BluRay.10-Bit.Dual-Audio.FLAC2.0.x265-YURASUKA.mkv (1.1 GiB)