KonoSuba.God's.Blessing.On.This.Wonderful.World.Legend.of.Crimson.2019.1080p.BluRay.10-Bit.Dual-Audio.AAC.FLAC5.1.x265-YURASUKA (Gekijouban Kono Subarashii Sekai ni Shukufuku wo Kurenai Densetsu)

Category:
Date:
2023-03-25 05:23 UTC
Submitter:
Seeders:
20
Information:
No information.
Leechers:
0
File size:
4.7 GiB
Completed:
1466
Info hash:
f87f1514919bbc5a798bbb41d04aa3efde5a4017
KonoSuba: God's Blessing on this Wonderful World! Legend of Crimson / Gekijouban Kono Subarashii Sekai ni Shukufuku wo! Kurenai Densetsu (2019) Note that only the Japanese track is 5.1, the English track is stereo. There is no US Blu-ray release so the only English audio available is AAC from Crunchyroll. Video Source: Anti-Raws@rutracker (JPBD) English Audio + Subtitles: [EMBER@Nyaa](https://nyaa.si/view/1102569) (Crunchyroll) Recommended Subtitles: [WBDP@Nyaa](https://nyaa.si/view/1584488) (Astral edit) [Encode Comparison](https://slow.pics/c/6Qdq1xOl) ``` Complete name : KonoSuba.God's.Blessing.on.this.Wonderful.World.Legend.of.Crimson.2019.1080p.BluRay.10-Bit.Dual-Audio.AAC.FLAC5.1.x265-YURASUKA.mkv Format : Matroska Format version : Version 4 File size : 4.73 GiB Duration : 1 h 29 min Overall bit rate mode : Variable Overall bit rate : 7 525 kb/s Movie name : KonoSuba: God's Blessing on this Wonderful World! Legend of Crimson (2019) - YURASUKA Encoded date : UTC 2023-03-25 04:30:31 Writing application : mkvmerge v74.0.0 ('You Oughta Know') 64-bit Writing library : libebml v1.4.4 + libmatroska v1.7.1 Attachments : 321impact.ttf / AmmanV3Sans-Medium.otf / arialbd.ttf / ArnoPro-BoldCaption.otf / COPRGTB.TTF / DCC - Ash.otf / GandhiSans-Bold_3.otf / GandhiSans-Bold.otf / GandhiSans-BoldItalic.otf / GandhiSans-Regular.otf / guzuri_1nensei.ttf / Hawaiian Aloha BTN.ttf / IwaOGoStd-Md.otf / KGBlankSpaceSolid.ttf / KGHAPPYSolid.ttf / LATO-HEAVY.TTF / NozakiDialogue-Bold.otf / NozakiDialogue-BoldItalic.otf / TnS-FOT-MatissePro-UB.ttf / vesta-bold.otf / Woodland.ttf / arial.ttf Video ID : 1 Format : HEVC Format/Info : High Efficiency Video Coding Format profile : Main 10@L5@Main Codec ID : V_MPEGH/ISO/HEVC Duration : 1 h 29 min Bit rate : 6 047 kb/s Width : 1 920 pixels Height : 1 080 pixels Display aspect ratio : 16:9 Frame rate mode : Constant Frame rate : 23.976 (24000/1001) FPS Color space : YUV Chroma subsampling : 4:2:0 Bit depth : 10 bits Bits/(Pixel*Frame) : 0.122 Stream size : 3.80 GiB (80%) Title : YURASUKA 1080p x265 Writing library : x265 3.5:[Linux][GCC 11.2.0][64 bit] 10bit Encoding settings : cpuid=1111039 / frame-threads=4 / numa-pools=24 / wpp / no-pmode / no-pme / no-psnr / no-ssim / log-level=2 / input-csp=1 / input-res=1920x1080 / interlace=0 / total-frames=0 / level-idc=0 / high-tier=1 / uhd-bd=0 / ref=6 / no-allow-non-conformance / no-repeat-headers / annexb / no-aud / no-hrd / info / hash=0 / no-temporal-layers / open-gop / min-keyint=1 / keyint=360 / gop-lookahead=0 / bframes=16 / b-adapt=2 / b-pyramid / bframe-bias=0 / rc-lookahead=72 / lookahead-slices=4 / scenecut=40 / hist-scenecut=0 / radl=0 / no-splice / no-intra-refresh / ctu=32 / min-cu-size=8 / rect / amp / max-tu-size=32 / tu-inter-depth=4 / tu-intra-depth=4 / limit-tu=0 / rdoq-level=2 / dynamic-rd=4.00 / no-ssim-rd / signhide / tskip / nr-intra=0 / nr-inter=0 / no-constrained-intra / strong-intra-smoothing / max-merge=3 / limit-refs=3 / limit-modes / me=3 / subme=7 / merange=57 / temporal-mvp / no-frame-dup / no-hme / weightp / weightb / no-analyze-src-pics / deblock=0:0 / no-sao / no-sao-non-deblock / rd=4 / selective-sao=0 / no-early-skip / rskip / no-fast-intra / no-tskip-fast / no-cu-lossless / b-intra / no-splitrd-skip / rdpenalty=0 / psy-rd=3.00 / psy-rdoq=3.00 / no-rd-refine / no-lossless / cbqpoffs=0 / crqpoffs=0 / rc=crf / crf=16.0 / qcomp=0.72 / qpstep=4 / stats-write=0 / stats-read=0 / vbv-maxrate=20000 / vbv-bufsize=20000 / vbv-init=0.9 / min-vbv-fullness=50.0 / max-vbv-fullness=80.0 / crf-max=0.0 / crf-min=0.0 / ipratio=1.40 / pbratio=1.30 / aq-mode=3 / aq-strength=0.95 / cutree / zone-count=0 / no-strict-cbr / qg-size=32 / no-rc-grain / qpmax=69 / qpmin=0 / no-const-vbv / sar=0 / overscan=0 / videoformat=5 / range=0 / colorprim=1 / transfer=1 / colormatrix=1 / chromaloc=0 / display-window=0 / cll=0,0 / min-luma=0 / max-luma=1023 / log2-max-poc-lsb=8 / vui-timing-info / vui-hrd-info / slices=1 / no-opt-qp-pps / no-opt-ref-list-length-pps / no-multi-pass-opt-rps / scenecut-bias=0.05 / hist-threshold=0.03 / no-opt-cu-delta-qp / no-aq-motion / no-hdr10 / no-hdr10-opt / no-dhdr10-opt / no-idr-recovery-sei / analysis-reuse-level=0 / analysis-save-reuse-level=0 / analysis-load-reuse-level=0 / scale-factor=0 / refine-intra=0 / refine-inter=0 / refine-mv=1 / refine-ctu-distortion=0 / no-limit-sao / ctu-info=0 / no-lowpass-dct / refine-analysis-type=0 / copy-pic=1 / max-ausize-factor=1.0 / no-dynamic-refine / no-single-sei / no-hevc-aq / no-svt / no-field / qp-adaptation-range=1.00 / scenecut-aware-qp=0conformance-window-offsets / right=0 / bottom=0 / decoder-max-rate=0 / no-vbv-live-multi-pass Language : Japanese Default : Yes Forced : No Color range : Limited Color primaries : BT.709 Transfer characteristics : BT.709 Matrix coefficients : BT.709 Audio #1 ID : 2 Format : AAC LC Format/Info : Advanced Audio Codec Low Complexity Codec ID : A_AAC-2 Duration : 1 h 29 min Bit rate : 128 kb/s Channel(s) : 2 channels Channel layout : L R Sampling rate : 44.1 kHz Frame rate : 43.066 FPS (1024 SPF) Compression mode : Lossy Delay relative to video : 1 s 0 ms Stream size : 82.4 MiB (2%) Title : English AAC 2.0 Language : English Default : Yes Forced : No Audio #2 ID : 3 Format : FLAC Format/Info : Free Lossless Audio Codec Codec ID : A_FLAC Duration : 1 h 29 min Bit rate mode : Variable Bit rate : 1 336 kb/s Channel(s) : 6 channels Channel layout : L R C LFE Ls Rs Sampling rate : 48.0 kHz Frame rate : 11.719 FPS (4096 SPF) Bit depth : 16 bits Compression mode : Lossless Stream size : 860 MiB (18%) Title : Japanese FLAC 5.1 Writing library : libFLAC 1.2.1 (UTC 2007-09-17) Language : Japanese Default : No Forced : No MD5 of the unencoded content : DEAF0C20D119204EAA00C52FBE3E5927 Text #1 Format : ASS Title : Signs & Songs [EMBER+CR] Language : English Default : Yes Forced : Yes Text #2 Format : ASS Title : Full Subtitles [Astral+WBDP] Language : English Default : No Forced : No Text #3 Format : ASS Title : Full Subtitles [EMBER+CR] Language : English Default : No Forced : No Menu 00:00:00.000 : Chapter 01 00:02:46.166 : Chapter 02 00:08:26.839 : Chapter 03 00:10:02.310 : Chapter 04 00:13:26.055 : Chapter 05 00:18:34.988 : Chapter 06 00:20:55.254 : Chapter 07 00:26:45.645 : Chapter 08 00:32:17.644 : Chapter 09 00:35:20.785 : Chapter 10 00:39:43.422 : Chapter 11 00:42:16.450 : Chapter 12 00:45:57.713 : Chapter 13 00:51:43.100 : Chapter 14 00:55:47.177 : Chapter 15 00:58:17.660 : Chapter 16 01:00:35.506 : Chapter 17 01:07:37.803 : Chapter 18 01:15:27.189 : Chapter 19 01:21:46.568 : Chapter 20 01:22:41.456 : Chapter 21 01:26:53.124 : Chapter 22 ``` Dead end for a sucker that’s a sucker like me. 私のようなカモの行き止まりです。

File list

ArigAtou gozAimAsu [Yurasuka](https://nyaa.si/user/Yurasuka)-kun ![💕](https://i.imgur.com/Bk8hGM1.png)