KonoSuba.God's.Blessing.On.This.Wonderful.World.S01.1080p.BluRay.10-Bit.Dual-Audio.FLAC2.0.x265-YURASUKA (Kono Subarashii Sekai ni Shukufuku wo)

Category:
Date:
2023-03-11 05:29 UTC
Submitter:
Seeders:
27
Information:
Leechers:
0
File size:
15.8 GiB
Completed:
1813
Info hash:
b569217619f57a10887de25eba531d7dc56a817f
KonoSuba: God's Blessing On This Wonderful World! / Kono Subarashii Sekai ni Shukufuku wo! Season 1 (2016) God's grain on this wonderful Blu-ray! S00E03 is the OVA which is also considered Episode 11 in DVD order. There is no S00E01 or S00E02 on TVDB so I do not know why it is named this way but this is what Sonarr uses. A/V Source: Anti-Raws@rutracker (JPBD) Subtitles Source: [KH@Nyaa](https://nyaa.si/view/1223918) (FFF, Chihiro) English Audio Source: [iAHD@Nyaa](https://nyaa.si/view/1259025) (USBD) [Encode Comparison](https://slow.pics/c/xaYqahHT) ``` Complete name : KonoSuba.God's.Blessing.On.This.Wonderful.World.S01E10.1080p.BluRay.10-Bit.Dual-Audio.FLAC2.0.x265-YURASUKA.mkv Format : Matroska Format version : Version 4 File size : 1.73 GiB Duration : 25 min 10 s Overall bit rate mode : Variable Overall bit rate : 9 868 kb/s Movie name : KonoSuba: God's Blessing On This Wonderful World! - S01E10 - YURASUKA Encoded date : UTC 2023-03-10 22:46:24 Writing application : mkvmerge v73.0.0 ('25 or 6 to 4') 64-bit Writing library : libebml v1.4.4 + libmatroska v1.7.1 Attachments : AidaBold.ttf / AMPLIT~1.TTF / A-OTF-~1.TTF / ARNOVA~1.TTF / AVENIR~1.OTF / AVENIR~2.OTF / Baqa.otf / BSOD.ttf / CAXTON~1.OTF / COMMER~1.TTF / CORPID~1.TTF / CTMERC~1.OTF / DAIGO-~1.TTF / Emilia.ttf / FOT-AN~1.TTF / FRANCO~1.TTF / HAWAII~1.TTF / HIRAV8~1.TTF / JAPANS~1.OTF / JEJUMY~1.TTF / KEAGEN~1.TTF / NOZAKI~1.OTF / NOZAKI~2.OTF / Nyala.ttf / PETERB~1.TTF / PIXEARG.TTF / PIXELF~1.TTF / QUAYSA~1.TTF / QUAYSA~2.TTF / ROBOTO~1.TTF / SWISS7~1.TTF / VAGROU~1.TTF / YGGDRA~1.TTF Video ID : 1 Format : HEVC Format/Info : High Efficiency Video Coding Format profile : Main 10@L5@Main Codec ID : V_MPEGH/ISO/HEVC Duration : 25 min 1 s Bit rate : 8 235 kb/s Width : 1 920 pixels Height : 1 080 pixels Display aspect ratio : 16:9 Frame rate mode : Constant Frame rate : 23.976 (24000/1001) FPS Color space : YUV Chroma subsampling : 4:2:0 Bit depth : 10 bits Bits/(Pixel*Frame) : 0.166 Stream size : 1.44 GiB (83%) Title : YURASUKA 1080p x265 Writing library : x265 3.5:[Linux][GCC 11.2.0][64 bit] 10bit Encoding settings : cpuid=1111039 / frame-threads=4 / numa-pools=24 / wpp / no-pmode / no-pme / no-psnr / no-ssim / log-level=2 / input-csp=1 / input-res=1920x1080 / interlace=0 / total-frames=0 / level-idc=0 / high-tier=1 / uhd-bd=0 / ref=6 / no-allow-non-conformance / no-repeat-headers / annexb / no-aud / no-hrd / info / hash=0 / no-temporal-layers / open-gop / min-keyint=1 / keyint=360 / gop-lookahead=0 / bframes=16 / b-adapt=2 / b-pyramid / bframe-bias=0 / rc-lookahead=72 / lookahead-slices=4 / scenecut=40 / hist-scenecut=0 / radl=0 / no-splice / no-intra-refresh / ctu=32 / min-cu-size=8 / rect / amp / max-tu-size=32 / tu-inter-depth=4 / tu-intra-depth=4 / limit-tu=0 / rdoq-level=2 / dynamic-rd=4.00 / no-ssim-rd / signhide / tskip / nr-intra=0 / nr-inter=0 / no-constrained-intra / strong-intra-smoothing / max-merge=3 / limit-refs=3 / limit-modes / me=3 / subme=7 / merange=57 / temporal-mvp / no-frame-dup / no-hme / weightp / weightb / no-analyze-src-pics / deblock=0:0 / no-sao / no-sao-non-deblock / rd=4 / selective-sao=0 / no-early-skip / rskip / no-fast-intra / no-tskip-fast / no-cu-lossless / b-intra / no-splitrd-skip / rdpenalty=0 / psy-rd=2.00 / psy-rdoq=2.00 / no-rd-refine / no-lossless / cbqpoffs=0 / crqpoffs=0 / rc=crf / crf=16.0 / qcomp=0.72 / qpstep=4 / stats-write=0 / stats-read=0 / vbv-maxrate=20000 / vbv-bufsize=20000 / vbv-init=0.9 / min-vbv-fullness=50.0 / max-vbv-fullness=80.0 / crf-max=0.0 / crf-min=0.0 / ipratio=1.40 / pbratio=1.30 / aq-mode=3 / aq-strength=0.85 / cutree / zone-count=0 / no-strict-cbr / qg-size=32 / no-rc-grain / qpmax=69 / qpmin=0 / no-const-vbv / sar=0 / overscan=0 / videoformat=5 / range=0 / colorprim=1 / transfer=1 / colormatrix=1 / chromaloc=0 / display-window=0 / cll=0,0 / min-luma=0 / max-luma=1023 / log2-max-poc-lsb=8 / vui-timing-info / vui-hrd-info / slices=1 / no-opt-qp-pps / no-opt-ref-list-length-pps / no-multi-pass-opt-rps / scenecut-bias=0.05 / hist-threshold=0.03 / no-opt-cu-delta-qp / no-aq-motion / no-hdr10 / no-hdr10-opt / no-dhdr10-opt / no-idr-recovery-sei / analysis-reuse-level=0 / analysis-save-reuse-level=0 / analysis-load-reuse-level=0 / scale-factor=0 / refine-intra=0 / refine-inter=0 / refine-mv=1 / refine-ctu-distortion=0 / no-limit-sao / ctu-info=0 / no-lowpass-dct / refine-analysis-type=0 / copy-pic=1 / max-ausize-factor=1.0 / no-dynamic-refine / no-single-sei / no-hevc-aq / no-svt / no-field / qp-adaptation-range=1.00 / scenecut-aware-qp=0conformance-window-offsets / right=0 / bottom=0 / decoder-max-rate=0 / no-vbv-live-multi-pass Language : Japanese Default : Yes Forced : No Color range : Limited Color primaries : BT.709 Transfer characteristics : BT.709 Matrix coefficients : BT.709 Audio #1 ID : 2 Format : FLAC Format/Info : Free Lossless Audio Codec Codec ID : A_FLAC Duration : 25 min 0 s Bit rate mode : Variable Bit rate : 761 kb/s Channel(s) : 2 channels Channel layout : L R Sampling rate : 48.0 kHz Frame rate : 10.417 FPS (4608 SPF) Bit depth : 16 bits Compression mode : Lossless Stream size : 136 MiB (8%) Title : English FLAC 2.0 Writing library : Lavf59.27.100 Language : English Default : Yes Forced : No Audio #2 ID : 3 Format : FLAC Format/Info : Free Lossless Audio Codec Codec ID : A_FLAC Duration : 25 min 1 s Bit rate mode : Variable Bit rate : 816 kb/s Channel(s) : 2 channels Channel layout : L R Sampling rate : 48.0 kHz Frame rate : 10.417 FPS (4608 SPF) Bit depth : 16 bits Compression mode : Lossless Stream size : 146 MiB (8%) Title : Japanese FLAC 2.0 Writing library : Lavf59.27.100 Language : Japanese Default : No Forced : No Text #1 Format : ASS Title : Signs / Songs Language : English Default : Yes Forced : Yes Text #2 Format : ASS Title : Full Subs [Chihiro] Language : Japanese Default : No Forced : No Text #3 Format : ASS Title : Full Subs [FFF] Default : No Forced : No Menu 00:00:00.000 : en:Intro 00:00:54.054 : en:OP 00:02:24.060 : en:Part A 00:11:28.062 : en:Part B 00:23:30.075 : en:ED ``` Dead end for a sucker that’s a sucker like me. 私のようなカモの行き止まりです。

File list

  • KonoSuba.God's.Blessing.On.This.Wonderful.World.S01.1080p.BluRay.10-Bit.Dual-Audio.FLAC2.0.x265-YURASUKA
    • KonoSuba.God's.Blessing.On.This.Wonderful.World.S00E03.1080p.BluRay.10-Bit.Dual-Audio.FLAC2.0.x265-YURASUKA.mkv (1.2 GiB)
    • KonoSuba.God's.Blessing.On.This.Wonderful.World.S01E01.1080p.BluRay.10-Bit.Dual-Audio.FLAC2.0.x265-YURASUKA.mkv (1.6 GiB)
    • KonoSuba.God's.Blessing.On.This.Wonderful.World.S01E02.1080p.BluRay.10-Bit.Dual-Audio.FLAC2.0.x265-YURASUKA.mkv (1.4 GiB)
    • KonoSuba.God's.Blessing.On.This.Wonderful.World.S01E03.1080p.BluRay.10-Bit.Dual-Audio.FLAC2.0.x265-YURASUKA.mkv (1.4 GiB)
    • KonoSuba.God's.Blessing.On.This.Wonderful.World.S01E04.1080p.BluRay.10-Bit.Dual-Audio.FLAC2.0.x265-YURASUKA.mkv (1.4 GiB)
    • KonoSuba.God's.Blessing.On.This.Wonderful.World.S01E05.1080p.BluRay.10-Bit.Dual-Audio.FLAC2.0.x265-YURASUKA.mkv (1.4 GiB)
    • KonoSuba.God's.Blessing.On.This.Wonderful.World.S01E06.1080p.BluRay.10-Bit.Dual-Audio.FLAC2.0.x265-YURASUKA.mkv (1.6 GiB)
    • KonoSuba.God's.Blessing.On.This.Wonderful.World.S01E07.1080p.BluRay.10-Bit.Dual-Audio.FLAC2.0.x265-YURASUKA.mkv (1.3 GiB)
    • KonoSuba.God's.Blessing.On.This.Wonderful.World.S01E08.1080p.BluRay.10-Bit.Dual-Audio.FLAC2.0.x265-YURASUKA.mkv (1.4 GiB)
    • KonoSuba.God's.Blessing.On.This.Wonderful.World.S01E09.1080p.BluRay.10-Bit.Dual-Audio.FLAC2.0.x265-YURASUKA.mkv (1.3 GiB)
    • KonoSuba.God's.Blessing.On.This.Wonderful.World.S01E10.1080p.BluRay.10-Bit.Dual-Audio.FLAC2.0.x265-YURASUKA.mkv (1.7 GiB)