[ShouryuuReppa] Shingeki no Kyojin: The Final Season - Kanketsu-hen 1080p [Multi-subs][HEVC][x265][10bit][AAC]

Category:
Date:
2023-03-04 21:37 UTC
Submitter:
Seeders:
4
Information:
No information.
Leechers:
0
File size:
1.4 GiB
Completed:
474
Info hash:
b920251158a8efc1df0588c46848ca7e6c1788ae
Source: Tsundere-Raws Encoding Settings ffmpeg -hide_banner -v verbose -i "Attack on Titan S04E29~31 1080p WEB x264 AAC -Tsundere-Raws (CR).mkv" -map 0 -c:v libx265 -preset slow -crf 20 -x265-params ref=4:bframes=8:rc-lookahead=40:lookahead-slices=0:constrained-intra=1:deblock=1,1:psy-rd=1.50:aq-mode=3:limit-sao=1:range=limited:colorprim=bt709:transfer=bt709:colormatrix=bt709 -pix_fmt yuv420p10le -acodec copy -scodec copy "[ShouryuuReppa] Shingeki no Kyojin: The Final Season - Kanketsu-hen 1080p [Multi-subs][HEVC][x265][10bit][AAC].mkv" frame=87634 fps=2.0 q=28.0 Lsize= 1417055kB time=01:00:55.12 bitrate=3176.0kbits/s speed=0.0825x video:1341245kB audio:57112kB subtitle:481kB other streams:0kB global headers:16222kB muxing overhead: 1.302289% x265 [info]: frame I: 978, Avg QP:14.87 kb/s: 25333.47 x265 [info]: frame P: 21202, Avg QP:17.01 kb/s: 7960.63 x265 [info]: frame B: 65454, Avg QP:25.05 kb/s: 1066.57 x265 [info]: Weighted P-Frames: Y:3.5% UV:2.7% x265 [info]: consecutive B-frames: 18.4% 11.7% 6.0% 30.3% 9.1% 12.4% 4.9% 5.2% 2.1% encoded 87634 frames in 44333.26s (1.98 fps), 3005.33 kb/s, Avg QP:22.99 MediaInfo General Unique ID : 284411980575663113461906625107023483397 (0xD5F7C1473DECD2A48018D85AFB49D205) Complete name : /home/mrclay/Downloads/HEVC/[ShouryuuReppa] Shingeki no Kyojin: The Final Season - Kanketsu-hen/[ShouryuuReppa] Shingeki no Kyojin: The Final Season - Kanketsu-hen 1080p [Multi-subs][HEVC][x265][10bit][AAC].mkv Format : Matroska Format version : Version 4 File size : 1.35 GiB Duration : 1 h 0 min Overall bit rate : 3 174 kb/s Movie name : Shingeki no Kyojin: The Final Season - Kanketsu-hen Encoded date : UTC 2023-03-04 21:25:36 Writing application : mkvmerge v45.0.0 ('Heaven in Pennies') 64-bit Writing library : libebml v1.3.10 + libmatroska v1.5.2 / Lavf58.76.100 Attachments : arialbi.ttf / ariali.ttf / arialbd.ttf / arial.ttf / timesi.ttf / timesbd.ttf / timesbi.ttf / times.ttf / trebucbd.ttf / trebucbi.ttf / trebucit.ttf / trebuc.ttf / verdana.ttf / verdanai.ttf / verdanab.ttf / verdanaz.ttf / consolai.ttf / consolaz.ttf / consola.ttf / consolab.ttf / tahoma.ttf / georgia.ttf / georgiai.ttf / georgiaz.ttf / georgiab.ttf / comicz.ttf / comicbd.ttf / comici.ttf / courbd.ttf / cour.ttf / couri.ttf / courbi.ttf Video ID : 1 Format : HEVC Format/Info : High Efficiency Video Coding Format profile : Main 10@L4@Main Codec ID : V_MPEGH/ISO/HEVC Duration : 1 h 0 min Bit rate : 3 006 kb/s Width : 1 920 pixels Height : 1 080 pixels Display aspect ratio : 16:9 Frame rate mode : Constant Frame rate : 23.976 (24000/1001) FPS Color space : YUV Chroma subsampling : 4:2:0 Bit depth : 10 bits Bits/(Pixel*Frame) : 0.060 Stream size : 1.28 GiB (95%) Writing library : x265 3.5+1-f0c1022b6:[Linux][GCC 9.3.0][64 bit] 10bit Encoding settings : cpuid=1111039 / frame-threads=2 / wpp / no-pmode / no-pme / no-psnr / no-ssim / log-level=2 / input-csp=1 / input-res=1920x1080 / interlace=0 / total-frames=0 / level-idc=0 / high-tier=1 / uhd-bd=0 / ref=4 / no-allow-non-conformance / no-repeat-headers / annexb / no-aud / no-hrd / info / hash=0 / no-temporal-layers / open-gop / min-keyint=23 / keyint=250 / gop-lookahead=0 / bframes=8 / b-adapt=2 / b-pyramid / bframe-bias=0 / rc-lookahead=40 / lookahead-slices=0 / scenecut=40 / hist-scenecut=0 / radl=0 / no-splice / no-intra-refresh / ctu=64 / min-cu-size=8 / rect / no-amp / max-tu-size=32 / tu-inter-depth=1 / tu-intra-depth=1 / limit-tu=0 / rdoq-level=2 / dynamic-rd=0.00 / no-ssim-rd / signhide / no-tskip / nr-intra=0 / nr-inter=0 / constrained-intra / strong-intra-smoothing / max-merge=3 / limit-refs=3 / limit-modes / me=3 / subme=3 / merange=57 / temporal-mvp / no-frame-dup / no-hme / weightp / no-weightb / no-analyze-src-pics / deblock=1:1 / sao / no-sao-non-deblock / rd=4 / selective-sao=4 / no-early-skip / rskip / no-fast-intra / no-tskip-fast / no-cu-lossless / no-b-intra / no-splitrd-skip / rdpenalty=0 / psy-rd=1.50 / psy-rdoq=1.00 / no-rd-refine / no-lossless / cbqpoffs=0 / crqpoffs=0 / rc=crf / crf=20.0 / qcomp=0.60 / qpstep=4 / stats-write=0 / stats-read=0 / ipratio=1.40 / pbratio=1.30 / aq-mode=3 / aq-strength=1.00 / cutree / zone-count=0 / no-strict-cbr / qg-size=32 / no-rc-grain / qpmax=69 / qpmin=0 / no-const-vbv / sar=1 / overscan=0 / videoformat=5 / range=0 / colorprim=1 / transfer=1 / colormatrix=1 / chromaloc=0 / display-window=0 / cll=0,0 / min-luma=0 / max-luma=1023 / log2-max-poc-lsb=8 / vui-timing-info / vui-hrd-info / slices=1 / no-opt-qp-pps / no-opt-ref-list-length-pps / no-multi-pass-opt-rps / scenecut-bias=0.05 / hist-threshold=0.03 / no-opt-cu-delta-qp / no-aq-motion / no-hdr10 / no-hdr10-opt / no-dhdr10-opt / no-idr-recovery-sei / analysis-reuse-level=0 / analysis-save-reuse-level=0 / analysis-load-reuse-level=0 / scale-factor=0 / refine-intra=0 / refine-inter=0 / refine-mv=1 / refine-ctu-distortion=0 / limit-sao / ctu-info=0 / no-lowpass-dct / refine-analysis-type=0 / copy-pic=1 / max-ausize-factor=1.0 / no-dynamic-refine / no-single-sei / no-hevc-aq / no-svt / no-field / qp-adaptation-range=1.00 / scenecut-aware-qp=0conformance-window-offsets / right=0 / bottom=0 / decoder-max-rate=0 / no-vbv-live-multi-pass Default : Yes Forced : No Color range : Limited Color primaries : BT.709 Transfer characteristics : BT.709 Matrix coefficients : BT.709 Audio ID : 2 Format : AAC LC Format/Info : Advanced Audio Codec Low Complexity Codec ID : A_AAC-2 Duration : 1 h 0 min Bit rate : 128 kb/s Channel(s) : 2 channels Channel layout : L R Sampling rate : 44.1 kHz Frame rate : 43.066 FPS (1024 SPF) Compression mode : Lossy Stream size : 55.8 MiB (4%) Language : Japanese Default : Yes Forced : No Text #1 ID : 3 Format : ASS Codec ID : S_TEXT/ASS Codec ID/Info : Advanced Sub Station Alpha Duration : 58 min 41 s Bit rate : 113 b/s Count of elements : 706 Compression mode : Lossless Stream size : 48.8 KiB (0%) Title : English (US) Language : English Default : Yes Forced : No Text #2 ID : 4 Format : ASS Codec ID : S_TEXT/ASS Codec ID/Info : Advanced Sub Station Alpha Duration : 58 min 41 s Bit rate : 136 b/s Count of elements : 706 Compression mode : Lossless Stream size : 58.8 KiB (0%) Title : Arabic (SA) Language : Arabic Default : No Forced : No Text #3 ID : 5 Format : ASS Codec ID : S_TEXT/ASS Codec ID/Info : Advanced Sub Station Alpha Duration : 1 h 0 min Bit rate : 99 b/s Count of elements : 678 Compression mode : Lossless Stream size : 44.3 KiB (0%) Title : Spanish (419) Language : Spanish Default : No Forced : No Text #4 ID : 6 Format : ASS Codec ID : S_TEXT/ASS Codec ID/Info : Advanced Sub Station Alpha Duration : 58 min 41 s Bit rate : 117 b/s Count of elements : 727 Compression mode : Lossless Stream size : 50.5 KiB (0%) Title : Portuguese (BR) Language : Portuguese Default : No Forced : No

File list

  • [ShouryuuReppa] Shingeki no Kyojin: The Final Season - Kanketsu-hen 1080p [Multi-subs][HEVC][x265][10bit][AAC].mkv (1.4 GiB)