How.a.Realist.Hero.Rebuilt.the.Kingdom.S01.1080p.Blu-Ray.10-Bit.Dual-Audio.TrueHD.x265-iAHD

Category:
Date:
2023-03-04 20:46 UTC
Submitter:
Seeders:
7
Information:
No information.
Leechers:
2
File size:
18.7 GiB
Completed:
403
Info hash:
b149574ca829a29d76e30557dafbb6fe2e0c3854
Video ID : 1 Format : HEVC Format/Info : High Efficiency Video Coding Format profile : Main 10@L5@Main Codec ID : V_MPEGH/ISO/HEVC Duration : 23 min 42 s Bit rate : 5 910 kb/s Width : 1 920 pixels Height : 1 080 pixels Display aspect ratio : 16:9 Frame rate mode : Constant Frame rate : 23.976 (24000/1001) FPS Color space : YUV Chroma subsampling : 4:2:0 (Type 0) Bit depth : 10 bits Bits/(Pixel*Frame) : 0.119 Stream size : 1 002 MiB (68%) Writing library : x265 3.5+1-f0c1022b6:[Windows][GCC 10.2.0][64 bit] 10bit Encoding settings : cpuid=1111039 / frame-threads=4 / numa-pools=16 / wpp / no-pmode / no-pme / no-psnr / no-ssim / log-level=2 / input-csp=1 / input-res=1920x1080 / interlace=0 / total-frames=0 / level-idc=0 / high-tier=1 / uhd-bd=0 / ref=6 / no-allow-non-conformance / no-repeat-headers / annexb / no-aud / no-eob / no-eos / no-hrd / info / hash=0 / no-temporal-layers / open-gop / min-keyint=24 / keyint=240 / gop-lookahead=0 / bframes=16 / b-adapt=2 / b-pyramid / bframe-bias=0 / rc-lookahead=50 / lookahead-slices=4 / scenecut=40 / no-hist-scenecut / radl=0 / no-splice / no-intra-refresh / ctu=32 / min-cu-size=8 / no-rect / no-amp / max-tu-size=32 / tu-inter-depth=1 / tu-intra-depth=3 / limit-tu=0 / rdoq-level=2 / dynamic-rd=0.00 / no-ssim-rd / signhide / tskip / nr-intra=0 / nr-inter=0 / no-constrained-intra / no-strong-intra-smoothing / max-merge=3 / limit-refs=3 / limit-modes / me=3 / subme=3 / merange=57 / temporal-mvp / no-frame-dup / no-hme / weightp / no-weightb / no-analyze-src-pics / deblock=1:1 / no-sao / no-sao-non-deblock / rd=4 / selective-sao=0 / no-early-skip / rskip / no-fast-intra / tskip-fast / no-cu-lossless / no-b-intra / no-splitrd-skip / rdpenalty=0 / psy-rd=0.80 / psy-rdoq=2.00 / no-rd-refine / no-lossless / cbqpoffs=0 / crqpoffs=0 / rc=crf / crf=16.0 / qcomp=0.60 / qpstep=4 / stats-write=0 / stats-read=0 / ipratio=1.40 / pbratio=1.30 / aq-mode=3 / aq-strength=1.25 / cutree / zone-count=0 / no-strict-cbr / qg-size=32 / no-rc-grain / qpmax=69 / qpmin=0 / no-const-vbv / sar=1 / overscan=0 / videoformat=5 / range=0 / colorprim=1 / transfer=1 / colormatrix=1 / chromaloc=1 / chromaloc-top=0 / chromaloc-bottom=0 / display-window=0 / cll=0,0 / min-luma=0 / max-luma=1023 / log2-max-poc-lsb=8 / vui-timing-info / vui-hrd-info / slices=1 / no-opt-qp-pps / no-opt-ref-list-length-pps / no-multi-pass-opt-rps / scenecut-bias=0.05 / no-opt-cu-delta-qp / no-aq-motion / no-sbrc / no-hdr10 / no-hdr10-opt / no-dhdr10-opt / no-idr-recovery-sei / analysis-reuse-level=0 / analysis-save-reuse-level=0 / analysis-load-reuse-level=0 / scale-factor=0 / refine-intra=0 / refine-inter=0 / refine-mv=1 / refine-ctu-distortion=0 / no-limit-sao / ctu-info=0 / no-lowpass-dct / refine-analysis-type=0 / copy-pic=1 / max-ausize-factor=1.0 / no-dynamic-refine / no-single-sei / no-hevc-aq / no-svt / no-field / qp-adaptation-range=1.00 / scenecut-aware-qp=0conformance-window-offsets / right=0 / bottom=0 / decoder-max-rate=0 / no-vbv-live-multi-pass / no-mcstf Language : English Default : Yes Forced : No Color range : Limited Color primaries : BT.709 Transfer characteristics : BT.709 Matrix coefficients : BT.709 Audio #1 ID : 2 Format : MLP FBA Format/Info : Meridian Lossless Packing FBA Commercial name : Dolby TrueHD Codec ID : A_TRUEHD Duration : 23 min 42 s Bit rate mode : Variable Bit rate : 1 536 kb/s Maximum bit rate : 3 111 kb/s Channel(s) : 6 channels Channel layout : L R C LFE Ls Rs Sampling rate : 48.0 kHz Frame rate : 1 200.000 FPS (40 SPF) Compression mode : Lossless Stream size : 260 MiB (18%) Language : English Default : Yes Forced : No Audio #2 ID : 3 Format : MLP FBA Format/Info : Meridian Lossless Packing FBA Commercial name : Dolby TrueHD Codec ID : A_TRUEHD Duration : 23 min 42 s Bit rate mode : Variable Bit rate : 1 123 kb/s Maximum bit rate : 1 707 kb/s Channel(s) : 2 channels Channel layout : L R Sampling rate : 48.0 kHz Frame rate : 1 200.000 FPS (40 SPF) Compression mode : Lossless Stream size : 190 MiB (13%) Language : Japanese Default : Yes Forced : No Text #1 ID : 4 Format : PGS Muxing mode : zlib Codec ID : S_HDMV/PGS Codec ID/Info : Picture based subtitle format used on BDs/HD-DVDs Duration : 22 min 6 s Bit rate : 8 986 b/s Frame rate : 0.078 FPS Count of elements : 104 Stream size : 1.42 MiB (0%) Title : Signs / Songs Language : English Default : Yes Forced : No Text #2 ID : 5 Format : PGS Muxing mode : zlib Codec ID : S_HDMV/PGS Codec ID/Info : Picture based subtitle format used on BDs/HD-DVDs Duration : 23 min 19 s Bit rate : 77.3 kb/s Frame rate : 0.525 FPS Count of elements : 735 Stream size : 12.9 MiB (1%) Title : Dialogue Language : English Default : No Forced : No Menu 00:00:00.000 : en:Chapter 01 00:01:40.017 : en:Chapter 02 00:03:10.065 : en:Chapter 03 00:12:47.141 : en:Chapter 04 00:21:56.941 : en:Chapter 05

File list

  • How.a.Realist.Hero.Rebuilt.the.Kingdom.S01.1080p.Blu-Ray.10-Bit.Dual-Audio.TrueHD.x265-iAHD
    • How.a.Realist.Hero.Rebuilt.the.Kingdom.S01E01.1080p.Blu-Ray.10-Bit.Dual-Audio.TrueHD.x265-iAHD.mkv (1.4 GiB)
    • How.a.Realist.Hero.Rebuilt.the.Kingdom.S01E02.1080p.Blu-Ray.10-Bit.Dual-Audio.TrueHD.x265-iAHD.mkv (1.4 GiB)
    • How.a.Realist.Hero.Rebuilt.the.Kingdom.S01E03.1080p.Blu-Ray.10-Bit.Dual-Audio.TrueHD.x265-iAHD.mkv (1.4 GiB)
    • How.a.Realist.Hero.Rebuilt.the.Kingdom.S01E04.1080p.Blu-Ray.10-Bit.Dual-Audio.TrueHD.x265-iAHD.mkv (1.4 GiB)
    • How.a.Realist.Hero.Rebuilt.the.Kingdom.S01E05.1080p.Blu-Ray.10-Bit.Dual-Audio.TrueHD.x265-iAHD.mkv (1.4 GiB)
    • How.a.Realist.Hero.Rebuilt.the.Kingdom.S01E06.1080p.Blu-Ray.10-Bit.Dual-Audio.TrueHD.x265-iAHD.mkv (1.4 GiB)
    • How.a.Realist.Hero.Rebuilt.the.Kingdom.S01E07.1080p.Blu-Ray.10-Bit.Dual-Audio.TrueHD.x265-iAHD.mkv (1.4 GiB)
    • How.a.Realist.Hero.Rebuilt.the.Kingdom.S01E08.1080p.Blu-Ray.10-Bit.Dual-Audio.TrueHD.x265-iAHD.mkv (1.5 GiB)
    • How.a.Realist.Hero.Rebuilt.the.Kingdom.S01E09.1080p.Blu-Ray.10-Bit.Dual-Audio.TrueHD.x265-iAHD.mkv (1.5 GiB)
    • How.a.Realist.Hero.Rebuilt.the.Kingdom.S01E10.1080p.Blu-Ray.10-Bit.Dual-Audio.TrueHD.x265-iAHD.mkv (1.7 GiB)
    • How.a.Realist.Hero.Rebuilt.the.Kingdom.S01E11.1080p.Blu-Ray.10-Bit.Dual-Audio.TrueHD.x265-iAHD.mkv (1.4 GiB)
    • How.a.Realist.Hero.Rebuilt.the.Kingdom.S01E12.1080p.Blu-Ray.10-Bit.Dual-Audio.TrueHD.x265-iAHD.mkv (1.5 GiB)
    • How.a.Realist.Hero.Rebuilt.the.Kingdom.S01E13.1080p.Blu-Ray.10-Bit.Dual-Audio.TrueHD.x265-iAHD.mkv (1.3 GiB)
Episode 6 has some problems, might need a v2?
@salmonella Might be good to describe the problems so iAHQ can replicate them.
Don't recall what episodes but found 2 issues, one which might be what salmonella found and that was the picture stopped, froze but sound continued, happenned several times towards the end of an episode. Then in another episode where they were using the talking screen projector thing between the 2 countries the echo sound of the projected one was extremely annoying, like echo was turned on as a filter but only on one persons speech. I downloaded this and watched it and was going to replace my other smaller copy but decided not to bother and didn't think it worth noting the 2 issues I found as sometimes issues are caused by a bad download and may not be in the original. The freezing thing has been solved b4 on other peoples uploads by re downloading the file but the echo I thing would be more an issue in the file. I also skipped through some parts as I had watched this show b4 so I skip certain parts so there could have been more than 2 issues in the 2 sets.