[neoHEVC] Engage Kiss [Season 1] [BD 1080p x265 HEVC AAC] [Dual Audio]

Category:
Date:
2023-02-26 17:11 UTC
Submitter:
Seeders:
14
Information:
Leechers:
1
File size:
4.0 GiB
Completed:
855
Info hash:
37f2b17723571b0c7caeccee1b64ac3bbcce2b9c
![](https://i.imgur.com/RBlGp48.png) *Come hang out in **[Discord](https://discord.gg/47Q7FdB54e)*** #### **[Engage Kiss [Season 1]](https://myanimelist.net/anime/51417/Engage_Kiss)** ▶️ **[Trailer](https://www.youtube.com/watch?v=P7HPMH8x4rg)** --- **Notes:** . Resampled script . Restyled script and changed fonts . Created OP & ED . Sign position adjustments . Dialogue position adjustments . Created chapters --- **Synopsis** Bayron City, a pioneering metropolis built on a newly discovered energy source, promises every citizen a luxurious and comfortable lifestyle. In reality, young demon exterminator Shuu Ogata's life is far from extravagant. Despite running a private military business, he often struggles to make ends meet due to reckless expenses. Fortunately, Kisara, his demon partner, is more than eager to help Shuu with household matters—albeit a little too forcefully for his comfort. The two work side by side, taking countermeasures against demon hazards, which stand as the biggest threats to the city. With danger lurking in the shadows, Shuu and Kisara strive to grant the town's safety; however, exterminating the possessed comes with a price unbeknownst to others. ![](https://i.imgur.com/1mLRiSR.png) --- **Language Options** I included two simple scripts that you can apply to these files to do the following (Windows only): 1. Make [Single Audio] Japanese: Throws out *English audio* and *Signs&Songs subtitles* tracks 2. Make [Single Audio] English: Throws out *Japanese audio* and *Dialogue subtitles* tracks To apply these put all the video files into the *Language Options* folder and run the .bat file. *Don't combine them and only use them once together with the base files.* --- **Source** 🗃️ Video and JPN Audio (JPN BDMV): **[[KoushinRip]](https://nyaa.si/view/1583760)** 🗃️ ENG Audio (WEB): **[[Yameii]](https://nyaa.si/view/1569406)** 🗃️ Subtitles: **[[Zafkiel]](https://nyaa.si/view/1548402)** 💬 *Subtitles Info: [Zafkiel] Base [Me] Edits, see notes* *Thank you all for making this possible <3* --- **Media Info** 🆔 **[Full Mediainfo incl. Encoder Settings](https://pastebin.com/ag9GwRWW)** ``` General Unique ID : 252218899238551460584758947116869357904 (0xBDBF97D2ACBB5CD107373FBB92EE1150) Complete name : Engage Kiss - S01E01.mkv Format : Matroska Format version : Version 4 File size : 335 MiB Duration : 24 min 1 s Overall bit rate : 1 952 kb/s Movie name : Engage Kiss - S01E01 Encoded date : UTC 2023-02-26 16:20:04 Writing application : mkvmerge v72.0.0 ('Minuano (Six-eight)') 64-bit Writing library : libebml v1.4.4 + libmatroska v1.7.1 Attachments : CRONOSPRO-BOLD.OTF / CRONOSPRO-BOLDIT.OTF / Nexa Bold.otf / Qlassik_TB.ttf Video ID : 1 Format : HEVC Format/Info : High Efficiency Video Coding Format profile : Main 10@L4@High Codec ID : V_MPEGH/ISO/HEVC Duration : 24 min 1 s Bit rate : 1 602 kb/s Width : 1 920 pixels Height : 1 080 pixels Display aspect ratio : 16:9 Frame rate mode : Constant Frame rate : 23.976 (24000/1001) FPS Color space : YUV Chroma subsampling : 4:2:0 Bit depth : 10 bits Bits/(Pixel*Frame) : 0.032 Stream size : 275 MiB (82%) Writing library : x265 3.5+1-f0c1022b6:[Windows][GCC 9.2.0][64 bit] 10bit Encoding settings : <Check Link Above> Default : Yes Forced : No Color range : Limited Color primaries : BT.709 Transfer characteristics : BT.709 Matrix coefficients : BT.709 Audio #1 ID : 2 Format : AAC LC Format/Info : Advanced Audio Codec Low Complexity Codec ID : A_AAC-2 Duration : 24 min 0 s Bit rate : 128 kb/s Channel(s) : 2 channels Channel layout : L R Sampling rate : 44.1 kHz Frame rate : 43.066 FPS (1024 SPF) Compression mode : Lossy Stream size : 22.0 MiB (7%) Title : English Language : English Default : Yes Forced : No Audio #2 ID : 3 Format : AAC LC Format/Info : Advanced Audio Codec Low Complexity Codec ID : A_AAC-2 Duration : 24 min 1 s Bit rate : 217 kb/s Channel(s) : 2 channels Channel layout : L R Sampling rate : 48.0 kHz Frame rate : 46.875 FPS (1024 SPF) Compression mode : Lossy Stream size : 37.4 MiB (11%) Title : Japanese Language : Japanese Default : No Forced : No Text #1 ID : 4 Format : ASS Codec ID : S_TEXT/ASS Codec ID/Info : Advanced Sub Station Alpha Duration : 23 min 24 s Bit rate : 63 b/s Frame rate : 0.088 FPS Count of elements : 123 Compression mode : Lossless Stream size : 10.9 KiB (0%) Title : Signs & Songs Language : English Default : No Forced : Yes Text #2 ID : 5 Format : ASS Codec ID : S_TEXT/ASS Codec ID/Info : Advanced Sub Station Alpha Duration : 23 min 48 s Bit rate : 185 b/s Frame rate : 0.321 FPS Count of elements : 459 Compression mode : Lossless Stream size : 32.3 KiB (0%) Title : Dialogue Language : English Default : Yes Forced : No Menu 00:00:00.000 : :Intro 00:01:03.540 : :Episode 00:23:55.000 : :Preview ```

File list

  • [neoHEVC] Engage Kiss [Season 1] [BD 1080p x265 HEVC AAC] [Dual Audio]
    • Language Options
      • 1. Make [Single Audio] English.bat (254 Bytes)
      • 2. Make [Single Audio] Japanese.bat (254 Bytes)
      • mkvmerge.exe (9.6 MiB)
      • readme.txt (511 Bytes)
    • Engage Kiss - S01E01.mkv (335.4 MiB)
    • Engage Kiss - S01E02.mkv (281.0 MiB)
    • Engage Kiss - S01E03.mkv (352.0 MiB)
    • Engage Kiss - S01E04.mkv (277.6 MiB)
    • Engage Kiss - S01E05.mkv (259.0 MiB)
    • Engage Kiss - S01E06.mkv (279.8 MiB)
    • Engage Kiss - S01E07.mkv (316.5 MiB)
    • Engage Kiss - S01E08.mkv (236.6 MiB)
    • Engage Kiss - S01E09.mkv (323.5 MiB)
    • Engage Kiss - S01E10.mkv (329.8 MiB)
    • Engage Kiss - S01E11.mkv (355.0 MiB)
    • Engage Kiss - S01E12.mkv (340.5 MiB)
    • Engage Kiss - S01E13.mkv (412.3 MiB)
Thank you so much!
Please Rip Welcome To Demon School! Iruma-kun Season 3 With English Audio