[neoHEVC] A Couple of Cuckoos [Season 1] [BD 1080p x265 HEVC AAC] [Dual Audio] Kakkou no Iinazuke

Category:
Date:
2023-02-22 17:49 UTC
Submitter:
Seeders:
16
Information:
Leechers:
5
File size:
7.6 GiB
Completed:
1092
Info hash:
026da52a33effbb458afacbaa95675186860812c
![](https://i.imgur.com/RBlGp48.png) *Come hang out in **[Discord](https://discord.gg/47Q7FdB54e)*** #### **[A Couple of Cuckoos [Season 1]](https://myanimelist.net/anime/48675/Kakkou_no_Iinazuke)** ▶️ **[Trailer](https://www.youtube.com/watch?v=4dhHnE_Jsbo)** --- **Synopsis** Nagi Umino and Erika Amano, a studious high school student and a social media star, had nothing that linked them together—until they found out they were swapped at birth. When the sudden news is revealed to both of their families, their parents quickly devise a proposition with neither Nagi's nor Erika's knowledge: in order to restore them both to their rightful families and ensure everyone's happiness, the two should get engaged. When informed of this, Nagi and Erika are quick to reject the absurd plan, refusing to go along with their parents' wishes. But, with neither party willing to back down, only time can tell where their relationship will go. ![](https://i.imgur.com/DKs5EwY.png) --- **Language Options** I included two simple scripts that you can apply to these files to do the following (Windows only): 1. Make [Single Audio] Japanese: Throws out *English audio* and *Signs&Songs subtitles* tracks 2. Make [Single Audio] English: Throws out *Japanese audio* and *Dialogue subtitles* tracks To apply these put all the video files into the *Language Options* folder and run the .bat file. *Don't combine them and only use them once together with the base files.* --- **Source** 🗃️ Video and JPN Audio (JPN BDMV): **[[KoushinRip]](https://nyaa.si/view/1571191)** 🗃️ ENG Audio (WEB): **[[Yameii]](https://nyaa.si/view/1525606)** 🗃️ Subtitles: **[[GHS]](https://nyaa.si/view/1586920)** 💬 *Subtitles Info: [GHS]* *Thank you all for making this possible <3* --- **Media Info** 🆔 **[Full Mediainfo incl. Encoder Settings](https://pastebin.com/t3G9vCq3)** ``` General Unique ID : 159247571118753622821695385819563989622 (0x77CDF771B63875DBF60DD4BEF2689A76) Complete name : A Couple of Cuckoos - S01E01.mkv Format : Matroska Format version : Version 4 File size : 416 MiB Duration : 23 min 4 s Overall bit rate : 2 521 kb/s Movie name : A Couple of Cuckoos - S01E01 Encoded date : UTC 2022-10-06 21:36:27 Writing application : mkvmerge v57.0.0 ('Till The End') 64-bit Writing library : libebml v1.4.2 + libmatroska v1.6.4 Attachments : A-OTF-FolkPro-Heavy.otf / ARIALNB.TTF / ArimaKoshi-Bold.otf / BLUEBRUSH-NORMAL.TTF / CC Wild Words Roman.ttf / Days.otf / FOT-SKIPSTD-B-EN.ttf / FOT-TelopMin Pro B.otf / GandhiSans-Bold.otf / GandhiSans-BoldItalic.otf / HandveticaTrial.ttf / January Handwriting.ttf / Kirinashi-Sans-1.ttf / Lato-Reg.ttf / marker.ttf / Mixage_Bold_BT.ttf / PIXELFJVERDANA12PT.TTF Video ID : 1 Format : HEVC Format/Info : High Efficiency Video Coding Format profile : Main 10@L4@High Codec ID : V_MPEGH/ISO/HEVC Duration : 23 min 4 s Bit rate : 2 085 kb/s Width : 1 920 pixels Height : 1 080 pixels Display aspect ratio : 16:9 Frame rate mode : Constant Frame rate : 23.976 (24000/1001) FPS Color space : YUV Chroma subsampling : 4:2:0 Bit depth : 10 bits Bits/(Pixel*Frame) : 0.042 Stream size : 344 MiB (83%) Writing library : x265 3.5+1-f0c1022b6:[Windows][GCC 9.2.0][64 bit] 10bit Encoding settings : <Check Link Above> Default : Yes Forced : No Color range : Limited Color primaries : BT.709 Transfer characteristics : BT.709 Matrix coefficients : BT.709 Audio #1 ID : 2 Format : AAC LC Format/Info : Advanced Audio Codec Low Complexity Codec ID : A_AAC-2 Duration : 23 min 2 s Bit rate : 128 kb/s Channel(s) : 2 channels Channel layout : L R Sampling rate : 44.1 kHz Frame rate : 43.066 FPS (1024 SPF) Compression mode : Lossy Stream size : 21.1 MiB (5%) Title : English Language : English Default : Yes Forced : No Audio #2 ID : 3 Format : AAC LC Format/Info : Advanced Audio Codec Low Complexity Codec ID : A_AAC-2 Duration : 23 min 4 s Bit rate : 211 kb/s Channel(s) : 2 channels Channel layout : L R Sampling rate : 48.0 kHz Frame rate : 46.875 FPS (1024 SPF) Compression mode : Lossy Stream size : 34.9 MiB (8%) Title : Japanese Language : Japanese Default : No Forced : No Text #1 ID : 4 Format : ASS Codec ID : S_TEXT/ASS Codec ID/Info : Advanced Sub Station Alpha Duration : 22 min 46 s Bit rate : 29.9 kb/s Frame rate : 7.211 FPS Count of elements : 9857 Compression mode : Lossless Stream size : 4.87 MiB (1%) Title : Signs & Songs Language : English Default : No Forced : Yes Text #2 ID : 5 Format : ASS Codec ID : S_TEXT/ASS Codec ID/Info : Advanced Sub Station Alpha Duration : 22 min 46 s Bit rate : 30.0 kb/s Frame rate : 7.527 FPS Count of elements : 10289 Compression mode : Lossless Stream size : 4.89 MiB (1%) Title : Dialogue Language : English Default : Yes Forced : No Menu 00:00:00.000 : Intro 00:00:39.020 : OP 00:02:08.980 : Main Episode 00:21:39.030 : ED ```

File list

  • [neoHEVC] A Couple of Cuckoos [Season 1] [BD 1080p x265 HEVC AAC] [Dual Audio]
    • Language Options
      • 1. Make [Single Audio] English.bat (254 Bytes)
      • 2. Make [Single Audio] Japanese.bat (254 Bytes)
      • mkvmerge.exe (9.6 MiB)
      • readme.txt (511 Bytes)
    • A Couple of Cuckoos - S01E01.mkv (415.9 MiB)
    • A Couple of Cuckoos - S01E02.mkv (430.5 MiB)
    • A Couple of Cuckoos - S01E03.mkv (442.3 MiB)
    • A Couple of Cuckoos - S01E04.mkv (426.3 MiB)
    • A Couple of Cuckoos - S01E05.mkv (409.0 MiB)
    • A Couple of Cuckoos - S01E06.mkv (433.9 MiB)
    • A Couple of Cuckoos - S01E07.mkv (436.9 MiB)
    • A Couple of Cuckoos - S01E08.mkv (485.8 MiB)
    • A Couple of Cuckoos - S01E09.mkv (452.7 MiB)
    • A Couple of Cuckoos - S01E10.mkv (399.8 MiB)
    • A Couple of Cuckoos - S01E11.mkv (375.9 MiB)
    • A Couple of Cuckoos - S01E12.mkv (419.3 MiB)
    • A Couple of Cuckoos - S01E13.mkv (209.6 MiB)
    • A Couple of Cuckoos - S01E14.mkv (203.2 MiB)
    • A Couple of Cuckoos - S01E15.mkv (220.2 MiB)
    • A Couple of Cuckoos - S01E16.mkv (238.9 MiB)
    • A Couple of Cuckoos - S01E17.mkv (217.9 MiB)
    • A Couple of Cuckoos - S01E18.mkv (213.7 MiB)
    • A Couple of Cuckoos - S01E19.mkv (210.8 MiB)
    • A Couple of Cuckoos - S01E20.mkv (235.6 MiB)
    • A Couple of Cuckoos - S01E21.mkv (219.9 MiB)
    • A Couple of Cuckoos - S01E22.mkv (226.5 MiB)
    • A Couple of Cuckoos - S01E23.mkv (234.2 MiB)
    • A Couple of Cuckoos - S01E24.mkv (223.0 MiB)
SSD : Thank you so much . Pc : Arigato Neo san . HDD : (tears of joy )😭