OreShura.S01.1080p.BluRay.10-Bit.FLAC2.0.x265-YURASUKA (Ore no Kanojo to Osananajimi ga Shuraba Sugiru)

Category:
Date:
2023-02-18 03:12 UTC
Submitter:
Seeders:
5
Information:
Leechers:
0
File size:
9.2 GiB
Completed:
361
Info hash:
51b99e1b8c489c7a695143f511cff86fc1cbee5c
OreShura / Ore no Kanojo to Osananajimi ga Shuraba Sugiru Season 1 (2013) A/V Source: [Prime@Nyaa](https://nyaa.si/view/1196179) (JPBD) Subtitles Source: [CBT@Nyaa](https://nyaa.si/view/1343970) (Rori) [Encode Comparison](https://slow.pics/c/5UY5WWX1) ``` Complete name : OreShura.S01E08.1080p.BluRay.10-Bit.FLAC2.0.x265-YURASUKA.mkv Format : Matroska Format version : Version 4 File size : 864 MiB Duration : 23 min 41 s Overall bit rate mode : Variable Overall bit rate : 5 101 kb/s Movie name : OreShura - S01E08 - YURASUKA Encoded date : UTC 2023-02-17 22:35:09 Writing application : mkvmerge v73.0.0 ('25 or 6 to 4') 64-bit Writing library : libebml v1.4.4 + libmatroska v1.7.1 Attachments : arial.ttf / ARRBD_ECL2.ttf / baka-lastoria.ttf / bluehighv2.ttf / Brianne_s_hand.ttf / Brushcut.ttf / BrushType_SemiBoldA.ttf / BrushType_SemiBoldA_(wwww.font-cat.com).ttf / Chuu-2-ad Pro Italic.ttf / Chuu-2-ad Pro Italic_0.ttf / Chuu-2-ad Pro.ttf / Chuu-2-ad Pro_0.ttf / corbel.ttf / corbelb.ttf / DFKanTeiRyu-XB.ttf / DFPMincho-SU-Nobuna.ttf / DFPTFLeiSho-W7-Denpa.ttf / DK+Crayon+Crumble.ttf / Doctor Soos Bold 2.1.ttf / ElmerFont-En.ttf / fansubBlock.ttf / Felt Regular.ttf / folk-koichoko.ttf / FontBleach.ttf / georgiab.ttf / Helvetica.ttf / homework normal.ttf / IwaMinPro-Md-Kami_0.ttf / IwaOMinPro-Hv-Fate.ttf / JandaEverydayCasual.ttf / KGTurningTables.ttf / KozGoPro-H.ttf / Marker_SD_1-2.ttf / Marker-Extended-Alt-Normal.ttf / mikiyu-mouhitsu.TTF / MyriadPro-BlackSemiCn.otf / njnaruto.ttf / PIXEARG.TTF / RaleighLTStd-Bold.otf / Samurai-Gosick.ttf / segoeprb.ttf / segoeprb_0.ttf / Sketchh.ttf / SqueakyChalkSound.ttf / TanukiMagic-CP.ttf / TanukiMagic-CP_0.ttf / tsukip.ttf / 44v2.ttf / A-OTF-GothicMB101Pro-NazoKano.ttf / A-OTF-TakaHandStd-Heavy-haganai.ttf Video ID : 1 Format : HEVC Format/Info : High Efficiency Video Coding Format profile : Main 10@L5@Main Codec ID : V_MPEGH/ISO/HEVC Duration : 23 min 41 s Bit rate : 4 291 kb/s Width : 1 920 pixels Height : 1 080 pixels Display aspect ratio : 16:9 Frame rate mode : Constant Frame rate : 23.976 (24000/1001) FPS Color space : YUV Chroma subsampling : 4:2:0 Bit depth : 10 bits Bits/(Pixel*Frame) : 0.086 Stream size : 727 MiB (84%) Title : YURASUKA 1080p x265 Writing library : x265 3.5:[Linux][GCC 11.2.0][64 bit] 10bit Encoding settings : cpuid=1111039 / frame-threads=4 / numa-pools=24 / wpp / no-pmode / no-pme / no-psnr / no-ssim / log-level=2 / input-csp=1 / input-res=1920x1080 / interlace=0 / total-frames=0 / level-idc=0 / high-tier=1 / uhd-bd=0 / ref=6 / no-allow-non-conformance / no-repeat-headers / annexb / no-aud / no-hrd / info / hash=0 / no-temporal-layers / open-gop / min-keyint=1 / keyint=360 / gop-lookahead=0 / bframes=16 / b-adapt=2 / b-pyramid / bframe-bias=0 / rc-lookahead=72 / lookahead-slices=4 / scenecut=40 / hist-scenecut=0 / radl=0 / no-splice / no-intra-refresh / ctu=32 / min-cu-size=8 / rect / amp / max-tu-size=32 / tu-inter-depth=4 / tu-intra-depth=4 / limit-tu=0 / rdoq-level=2 / dynamic-rd=4.00 / no-ssim-rd / signhide / tskip / nr-intra=0 / nr-inter=0 / no-constrained-intra / strong-intra-smoothing / max-merge=3 / limit-refs=3 / limit-modes / me=3 / subme=7 / merange=57 / temporal-mvp / no-frame-dup / no-hme / weightp / weightb / no-analyze-src-pics / deblock=0:0 / no-sao / no-sao-non-deblock / rd=4 / selective-sao=0 / no-early-skip / rskip / no-fast-intra / no-tskip-fast / no-cu-lossless / b-intra / no-splitrd-skip / rdpenalty=0 / psy-rd=2.00 / psy-rdoq=2.00 / no-rd-refine / no-lossless / cbqpoffs=0 / crqpoffs=0 / rc=crf / crf=16.0 / qcomp=0.72 / qpstep=4 / stats-write=0 / stats-read=0 / vbv-maxrate=20000 / vbv-bufsize=20000 / vbv-init=0.9 / min-vbv-fullness=50.0 / max-vbv-fullness=80.0 / crf-max=0.0 / crf-min=0.0 / ipratio=1.40 / pbratio=1.30 / aq-mode=3 / aq-strength=0.85 / cutree / zone-count=0 / no-strict-cbr / qg-size=32 / no-rc-grain / qpmax=69 / qpmin=0 / no-const-vbv / sar=0 / overscan=0 / videoformat=5 / range=0 / colorprim=1 / transfer=1 / colormatrix=1 / chromaloc=0 / display-window=0 / cll=0,0 / min-luma=0 / max-luma=1023 / log2-max-poc-lsb=8 / vui-timing-info / vui-hrd-info / slices=1 / no-opt-qp-pps / no-opt-ref-list-length-pps / no-multi-pass-opt-rps / scenecut-bias=0.05 / hist-threshold=0.03 / no-opt-cu-delta-qp / no-aq-motion / no-hdr10 / no-hdr10-opt / no-dhdr10-opt / no-idr-recovery-sei / analysis-reuse-level=0 / analysis-save-reuse-level=0 / analysis-load-reuse-level=0 / scale-factor=0 / refine-intra=0 / refine-inter=0 / refine-mv=1 / refine-ctu-distortion=0 / no-limit-sao / ctu-info=0 / no-lowpass-dct / refine-analysis-type=0 / copy-pic=1 / max-ausize-factor=1.0 / no-dynamic-refine / no-single-sei / no-hevc-aq / no-svt / no-field / qp-adaptation-range=1.00 / scenecut-aware-qp=0conformance-window-offsets / right=0 / bottom=0 / decoder-max-rate=0 / no-vbv-live-multi-pass Language : Japanese Default : Yes Forced : No Color range : Limited Color primaries : BT.709 Transfer characteristics : BT.709 Matrix coefficients : BT.709 Audio ID : 2 Format : FLAC Format/Info : Free Lossless Audio Codec Codec ID : A_FLAC Duration : 23 min 41 s Bit rate mode : Variable Bit rate : 684 kb/s Channel(s) : 2 channels Channel layout : L R Sampling rate : 48.0 kHz Frame rate : 10.417 FPS (4608 SPF) Bit depth : 16 bits Compression mode : Lossless Stream size : 116 MiB (13%) Title : Japanese FLAC 2.0 Writing library : Lavf59.27.100 Language : Japanese Default : Yes Forced : No MD5 of the unencoded content : D2308DA59861B7FF104DF9FE5D04A872 Text ID : 3 Format : ASS Codec ID : S_TEXT/ASS Codec ID/Info : Advanced Sub Station Alpha Duration : 23 min 35 s Bit rate : 363 b/s Frame rate : 0.426 FPS Count of elements : 603 Compression mode : Lossless Stream size : 62.8 KiB (0%) Title : English Subtitles [Rori] Language : English Default : Yes Forced : No Menu 00:00:00.000 : en:Beginning 00:01:25.001 : en:Opening 00:02:55.049 : en:Part A 00:11:46.080 : en:Part B 00:21:55.022 : en:Ending 00:23:25.028 : en:Preview ``` Dead end for a sucker that’s a sucker like me. 私のようなカモの行き止まりです。

File list

  • OreShura.S01.1080p.BluRay.10-Bit.FLAC2.0.x265-YURASUKA
    • OreShura.S01E01.1080p.BluRay.10-Bit.FLAC2.0.x265-YURASUKA.mkv (769.5 MiB)
    • OreShura.S01E02.1080p.BluRay.10-Bit.FLAC2.0.x265-YURASUKA.mkv (737.3 MiB)
    • OreShura.S01E03.1080p.BluRay.10-Bit.FLAC2.0.x265-YURASUKA.mkv (698.2 MiB)
    • OreShura.S01E04.1080p.BluRay.10-Bit.FLAC2.0.x265-YURASUKA.mkv (817.6 MiB)
    • OreShura.S01E05.1080p.BluRay.10-Bit.FLAC2.0.x265-YURASUKA.mkv (706.9 MiB)
    • OreShura.S01E06.1080p.BluRay.10-Bit.FLAC2.0.x265-YURASUKA.mkv (746.8 MiB)
    • OreShura.S01E07.1080p.BluRay.10-Bit.FLAC2.0.x265-YURASUKA.mkv (600.2 MiB)
    • OreShura.S01E08.1080p.BluRay.10-Bit.FLAC2.0.x265-YURASUKA.mkv (864.1 MiB)
    • OreShura.S01E09.1080p.BluRay.10-Bit.FLAC2.0.x265-YURASUKA.mkv (839.1 MiB)
    • OreShura.S01E10.1080p.BluRay.10-Bit.FLAC2.0.x265-YURASUKA.mkv (695.6 MiB)
    • OreShura.S01E11.1080p.BluRay.10-Bit.FLAC2.0.x265-YURASUKA.mkv (631.5 MiB)
    • OreShura.S01E12.1080p.BluRay.10-Bit.FLAC2.0.x265-YURASUKA.mkv (724.6 MiB)
    • OreShura.S01E13.1080p.BluRay.10-Bit.FLAC2.0.x265-YURASUKA.mkv (589.0 MiB)