[MiraiAnime] Young Black Jack (2015) [Season 1] [BD 1080p x265 HEVC OPUS] [ENG-SUB]

Category:
Date:
2023-02-14 16:30 UTC
Submitter:
Seeders:
2
Information:
Leechers:
1
File size:
4.2 GiB
Completed:
194
Info hash:
3faacf8a95d17b377feb62fed0cd5b2f65a6e722
|![](https://i.imgur.com/iIDSRgX.jpg)| | :-----: | | [**Young Black Jack - MyAnimeList.net**](https://myanimelist.net/anime/30740/Young_Black_Jack) | ___ #### **Information:** Video: Filters: row/column-values; rescale; degrain; dehalo; dering; deband Subtitles: EP1-6 are slightly improved (styling, blur, timing ...) from Kaitou. The rest are from CR with the same styling, episode titles and op/ed applied. Chapters are from the blu-ray. Audio encoded with 256kbit/s. If you want the source files of these, just tell me. ___ ##### For requests or questions, join my (small) discord server here: **https://discord.gg/8n7H3ArdCW** ##### I highly suggest you to use [mpv](https://mpv.io/) for playback. ___ **Summary:** * restyling of subtitles * encoded the audio tracks from PCM to OPUS (opusenc) * encoded and filtered video tracks to HEVC (x265, crf 22) * naming scheme matches [AniDB.net](https://anidb.net/) (for plex/sonarr/radarr/emby/jellyfin/kodi compatibility) |Track-Type | Title | Attributes | | :-------------: |:-------------:| :-----:| |video|English|x265 HEVC 10bit 23.976FPS 1920x1080| |audio|Japanese|48.0kHz stereo OPUS| |subtitles|English|ass| |chapters| ___ #### **Source:** [**BDMV**](https://i.imgur.com/EJYrtkw.png) - video, audio [**Kaitou**](https://nyaa.si/?f=0&c=0_0&q=young+black+jack+kaitou) - subtitles (EP01-EP06) [**HorribleRips**](https://nyaa.si/view/1295448) - subtitles (EP07-EP12) ___ #### **Screenshots:** |Screenshot 1|Screenshot 2|Screenshot 3|Screenshot 4| |:-:|:-:|:-:|:-:| |[![](https://i.imgur.com/dBTFmPF.png)](https://i.ibb.co/ckVYnpJ/Screenshot-1.png)|[![](https://i.imgur.com/FYwrBwx.png)](https://i.ibb.co/nLMsX9f/Screenshot-2.png)|[![](https://i.imgur.com/cyOVthu.png)](https://i.ibb.co/dDf770X/Screenshot-3.png)|[![](https://i.imgur.com/fu3FaK2.png)](https://i.ibb.co/Sn34Lpx/Screenshot-4.png)| ___ #### **FFprobe:** ``` Input #0, matroska,webm, from 'Young Black Jack (2015) - S01E01 - Where's the Doctor.mkv': Metadata: ENCODER : Lavf59.27.100 Duration: 00:24:12.10, start: -0.007000, bitrate: 2173 kb/s Chapters: Chapter #0:0: start 0.000000, end 0.000000 Metadata: title : Chapter 1 Chapter #0:1: start 70.987000, end 70.987000 Metadata: title : Chapter 2 Chapter #0:2: start 161.035000, end 161.035000 Metadata: title : Chapter 3 Chapter #0:3: start 625.041000, end 625.041000 Metadata: title : Chapter 4 Chapter #0:4: start 1330.037000, end 1330.037000 Metadata: title : Chapter 5 Chapter #0:5: start 1420.043000, end 1420.043000 Metadata: title : Chapter 6 Stream #0:0(jpn): Video: hevc (Main 10), yuv420p10le(tv, bt709), 1920x1080, SAR 1:1 DAR 16:9, 23.98 fps, 23.98 tbr, 1k tbn (default) Metadata: title : [BDMV] Japanese BPS : 1903842 DURATION : 00:24:12.075708333 NUMBER_OF_FRAMES: 34815 NUMBER_OF_BYTES : 345565287 _STATISTICS_WRITING_APP: mkvpropedit v73.0.0.18 ('25 or 6 to 4') 64-bit _STATISTICS_WRITING_DATE_UTC: 2023-02-13 23:58:09 _STATISTICS_TAGS: BPS DURATION NUMBER_OF_FRAMES NUMBER_OF_BYTES Stream #0:1(jpn): Audio: opus, 48000 Hz, stereo, fltp (default) Metadata: title : [BDMV] Japanese ENCODER : opusenc from opus-tools 0.2 ENCODER_OPTIONS : --bitrate 256k BPS : 247094 DURATION : 00:24:12.101000000 NUMBER_OF_FRAMES: 72606 NUMBER_OF_BYTES : 44850826 _STATISTICS_WRITING_APP: mkvpropedit v73.0.0.18 ('25 or 6 to 4') 64-bit _STATISTICS_WRITING_DATE_UTC: 2023-02-13 23:58:09 _STATISTICS_TAGS: BPS DURATION NUMBER_OF_FRAMES NUMBER_OF_BYTES Stream #0:2(eng): Subtitle: ass (default) Metadata: title : [Kaitou] English (MiraiAnime-Edit) BPS : 3985 DURATION : 00:24:09.680000000 NUMBER_OF_FRAMES: 2930 NUMBER_OF_BYTES : 722124 _STATISTICS_WRITING_APP: mkvpropedit v73.0.0.18 ('25 or 6 to 4') 64-bit _STATISTICS_WRITING_DATE_UTC: 2023-02-13 23:58:09 _STATISTICS_TAGS: BPS DURATION NUMBER_OF_FRAMES NUMBER_OF_BYTES Stream #0:3: Attachment: ttf Metadata: filename : Lato_Bol.ttf mimetype : application/x-truetype-font Stream #0:4: Attachment: ttf Metadata: filename : Lato_BoldItalic.ttf mimetype : application/x-truetype-font Stream #0:5: Attachment: ttf Metadata: filename : palr65w.ttf mimetype : application/x-truetype-font Stream #0:6: Attachment: ttf Metadata: filename : arial.ttf mimetype : application/x-truetype-font Stream #0:7: Attachment: ttf Metadata: filename : Galdeano_Regular.ttf mimetype : application/x-truetype-font Stream #0:8: Attachment: ttf Metadata: filename : PTSans_Regular.ttf mimetype : application/x-truetype-font Stream #0:9: Attachment: ttf Metadata: filename : HammersmithOne.ttf mimetype : application/x-truetype-font Stream #0:10: Attachment: ttf Metadata: filename : 4974036603_0.ttf mimetype : application/x-truetype-font Stream #0:11: Attachment: ttf Metadata: filename : COMPLETE_IN_HIM.ttf mimetype : application/x-truetype-font Stream #0:12: Attachment: ttf Metadata: filename : EncodeSansCompressed_Bold.ttf mimetype : application/x-truetype-font Stream #0:13: Attachment: ttf Metadata: filename : CARDS.ttf mimetype : application/x-truetype-font Stream #0:14: Attachment: ttf Metadata: filename : cgor65w_0.ttf mimetype : application/x-truetype-font ``` *** #### **Many thanks again to [Anonymous@U2], [Kaitou](https://nyaa.si/user/Kaitou%20Fansubs) and [HorribleRips](https://nyaa.si/user/HorribleRips) for making this possible.** ___ If you find anything that seems out of the ordinary, just post a comment or in my discord and I'll take a look at it.

File list

  • Young Black Jack (2015) [Season 1] [BD 1080p HEVC OPUS] [ENG-SUB]
    • Season 1
      • Young Black Jack (2015) - S01E01 - Where's the Doctor.mkv (376.2 MiB)
      • Young Black Jack (2015) - S01E02 - Abduction.mkv (388.2 MiB)
      • Young Black Jack (2015) - S01E03 - Deserters.mkv (411.9 MiB)
      • Young Black Jack (2015) - S01E04 - In Vietnam, Part 1.mkv (473.2 MiB)
      • Young Black Jack (2015) - S01E05 - In Vietnam, Part 2.mkv (372.8 MiB)
      • Young Black Jack (2015) - S01E06 - In Vietnam, Part 3.mkv (321.5 MiB)
      • Young Black Jack (2015) - S01E07 - Painless Revolution, Part 1.mkv (413.5 MiB)
      • Young Black Jack (2015) - S01E08 - Painless Revolution, Part 2.mkv (339.5 MiB)
      • Young Black Jack (2015) - S01E09 - The Gruesome Chronicle, Part 1.mkv (295.7 MiB)
      • Young Black Jack (2015) - S01E10 - The Gruesome Chronicle, Part 2.mkv (314.3 MiB)
      • Young Black Jack (2015) - S01E11 - The Gruesome Chronicle, Part 3.mkv (323.7 MiB)
      • Young Black Jack (2015) - S01E12 - The Season of Mania.mkv (318.8 MiB)