[TV-J] Macross Frontier -Itsuwari no Utahime- [BD 1920x1080 h264+AAC(5.1ch) Chapt].mp4

Category:
Date:
2010-10-07 23:57 UTC
Submitter:
Seeders:
1
Information:
No information.
Leechers:
0
File size:
4.4 GiB
Completed:
675
Info hash:
9098c3e1509d8b73e79b52ba14d7e1e5074dd373
**Original title: マクロスF ~イツワリノウタヒメ~ Romaji: Macross F: Itsuwari no Utahime English: Macross Frontier the MOVIE ~The False Diva~ [AniDB link](http://anidb.net/perl-bin/animedb.pl?show=anime&aid=6655) [\#TV-Japan@IRC.Rizon.Net](irc://IRC.Rizon.Net/TV-Japan) \* All BD extras will be uploaded too in a few hours.** MEDIAINFO General Complete name : \[TV-J\] Macross Frontier -Itsuwari no Utahime- \[BD 1920x1080 h264+AAC(5.1ch) Chapt\].mp4 Format : MPEG-4 Format profile : Base Media Codec ID : isom File size : 4.37 GiB Duration : 1h 59mn Overall bit rate : 5 237 Kbps Movie name : 劇場版 マクロスフロンティア 虚空歌姫 ~イツワリノウタヒメ~ Encoded date : UTC 2010-10-06 13:13:51 Tagged date : UTC 2010-10-07 13:24:53 Video ID : 1 Format : AVC Format/Info : Advanced Video Codec Format profile : High@L4.1 Format settings, CABAC : Yes Format settings, ReFrames : 4 frames Codec ID : avc1 Codec ID/Info : Advanced Video Coding Duration : 1h 59mn Bit rate mode : Variable Bit rate : 4 589 Kbps Maximum bit rate : 49.9 Mbps Width : 1 920 pixels Height : 1 080 pixels Display aspect ratio : 16:9 Frame rate mode : Constant Frame rate : 23.976 fps Color space : YUV Chroma subsampling : 4:2:0 Bit depth : 8 bits Scan type : Progressive Bits/(Pixel\*Frame) : 0.092 Stream size : 3.83 GiB (88%) Writing library : x264 core 67 r1129 c109c8e Encoding settings : cabac=1 / ref=4 / deblock=1:-1:-1 / analyse=0x3:0x113 / me=umh / me-prepass=0 / subme=7 / psy\_rd=0.0:0.0 / mixed\_ref=1 / me\_range=16 / chroma\_me=1 / trellis=2 / 8x8dct=1 / cqm=1 / deadzone=21,11 / chroma\_qp\_offset=0 / threads=12 / thread\_queue=12 / nr=0 / decimate=0 / mbaff=0 / bframes=8 / b\_pyramid=1 / b\_adapt=1 / b\_bias=0 / direct=3 / wpredb=1 / keyint=240 / keyint\_min=1 / scenecut=60 / rc=crf / crf=20.0 / qcomp=0.60 / qpmin=8 / qpmax=32 / qpstep=8 / vbv\_maxrate=40000 / vbv\_bufsize=8192 / ip\_ratio=1.40 / pb\_ratio=1.30 / aq=1:0:0.25:10.00 / aq2=1:0.25:17.00 Encoded date : UTC 2010-10-05 19:43:47 Tagged date : UTC 2010-10-06 13:14:56 Audio ID : 2 Format : AAC Format/Info : Advanced Audio Codec Format version : Version 4 Format profile : LC Format settings, SBR : No Codec ID : 40 Duration : 1h 59mn Bit rate mode : Constant Bit rate : 640 Kbps Channel(s) : 6 channels Channel positions : Front: L C R, Side: L R, LFE Sampling rate : 48.0 KHz Stream size : 547 MiB (12%) Language : Japanese Encoded date : UTC 2010-10-06 13:14:45 Tagged date : UTC 2010-10-06 13:14:56 Menu 00:00:00.000 : ダイアモンド クレバス 00:03:10.231 : What 'bout my star? 00:07:53.513 : ユニバーサル・バニー 00:12:26.454 : Welcome To My Fan Club's Night! 00:32:13.097 : アイモ 00:39:15.519 : 私の彼はパイロット 00:41:38.662 : pink monsoon 00:47:33.808 : アイモ 00:50:47.836 : What 'bout my star?@フォルモ 00:56:04.903 : スターライト納豆 00:57:05.421 : 開拓重機 00:57:29.696 : ダイナム超合金 00:58:08.609 : 超時空飯店 娘々 00:58:53.154 : だるまゼミナール 00:59:39.283 : ファミリーマート・コスモス 01:09:15.317 : 星間飛行(inst) 01:11:39.336 : アイモ 01:28:30.304 : 射手座☆午後九時 Don't be late 01:31:45.708 : 妖精 01:33:44.201 : ダイアモンド クレバス 01:38:47.420 : アイモ 01:41:37.674 : オベリスク 01:45:37.873 : ライオン 01:53:52.241 : そうだよ。 01:58:52.375 : トライアングラー

File list

  • [TV-J] Macross Frontier -Itsuwari no Utahime- [BD 1920x1080 h264+AAC(5.1ch) Chapt].mp4 (4.4 GiB)