Fruits.Basket.S03.1080p.Blu-Ray.10-Bit.Dual-Audio.TrueHD.x265-iAHD

Category:
Date:
2023-02-10 02:30 UTC
Submitter:
Seeders:
6
Information:
No information.
Leechers:
0
File size:
15.4 GiB
Completed:
262
Info hash:
f6ff55b5e1c103aee79d93826974ec3179587073
Video ID : 1 Format : HEVC Format/Info : High Efficiency Video Coding Format profile : Main 10@L5@Main Codec ID : V_MPEGH/ISO/HEVC Duration : 23 min 52 s Bit rate : 4 437 kb/s Width : 1 920 pixels Height : 1 080 pixels Display aspect ratio : 16:9 Frame rate mode : Constant Frame rate : 23.976 (24000/1001) FPS Color space : YUV Chroma subsampling : 4:2:0 (Type 0) Bit depth : 10 bits Bits/(Pixel*Frame) : 0.089 Stream size : 757 MiB (62%) Writing library : x265 3.5+1-f0c1022b6:[Windows][GCC 10.2.0][64 bit] 10bit Encoding settings : cpuid=1111039 / frame-threads=4 / numa-pools=16 / wpp / no-pmode / no-pme / no-psnr / no-ssim / log-level=2 / input-csp=1 / input-res=1920x1080 / interlace=0 / total-frames=0 / level-idc=0 / high-tier=1 / uhd-bd=0 / ref=6 / no-allow-non-conformance / no-repeat-headers / annexb / no-aud / no-eob / no-eos / no-hrd / info / hash=0 / no-temporal-layers / open-gop / min-keyint=24 / keyint=240 / gop-lookahead=0 / bframes=16 / b-adapt=2 / b-pyramid / bframe-bias=0 / rc-lookahead=50 / lookahead-slices=4 / scenecut=40 / no-hist-scenecut / radl=0 / no-splice / no-intra-refresh / ctu=32 / min-cu-size=8 / no-rect / no-amp / max-tu-size=32 / tu-inter-depth=1 / tu-intra-depth=3 / limit-tu=0 / rdoq-level=2 / dynamic-rd=0.00 / no-ssim-rd / signhide / tskip / nr-intra=0 / nr-inter=0 / no-constrained-intra / no-strong-intra-smoothing / max-merge=3 / limit-refs=3 / limit-modes / me=3 / subme=3 / merange=57 / temporal-mvp / no-frame-dup / no-hme / weightp / no-weightb / no-analyze-src-pics / deblock=1:1 / no-sao / no-sao-non-deblock / rd=4 / selective-sao=0 / no-early-skip / rskip / no-fast-intra / tskip-fast / no-cu-lossless / no-b-intra / no-splitrd-skip / rdpenalty=0 / psy-rd=0.80 / psy-rdoq=2.00 / no-rd-refine / no-lossless / cbqpoffs=0 / crqpoffs=0 / rc=crf / crf=16.0 / qcomp=0.60 / qpstep=4 / stats-write=0 / stats-read=0 / ipratio=1.40 / pbratio=1.30 / aq-mode=3 / aq-strength=1.25 / cutree / zone-count=0 / no-strict-cbr / qg-size=32 / no-rc-grain / qpmax=69 / qpmin=0 / no-const-vbv / sar=1 / overscan=0 / videoformat=5 / range=0 / colorprim=1 / transfer=1 / colormatrix=1 / chromaloc=1 / chromaloc-top=0 / chromaloc-bottom=0 / display-window=0 / cll=0,0 / min-luma=0 / max-luma=1023 / log2-max-poc-lsb=8 / vui-timing-info / vui-hrd-info / slices=1 / no-opt-qp-pps / no-opt-ref-list-length-pps / no-multi-pass-opt-rps / scenecut-bias=0.05 / no-opt-cu-delta-qp / no-aq-motion / no-sbrc / no-hdr10 / no-hdr10-opt / no-dhdr10-opt / no-idr-recovery-sei / analysis-reuse-level=0 / analysis-save-reuse-level=0 / analysis-load-reuse-level=0 / scale-factor=0 / refine-intra=0 / refine-inter=0 / refine-mv=1 / refine-ctu-distortion=0 / no-limit-sao / ctu-info=0 / no-lowpass-dct / refine-analysis-type=0 / copy-pic=1 / max-ausize-factor=1.0 / no-dynamic-refine / no-single-sei / no-hevc-aq / no-svt / no-field / qp-adaptation-range=1.00 / scenecut-aware-qp=0conformance-window-offsets / right=0 / bottom=0 / decoder-max-rate=0 / no-vbv-live-multi-pass / no-mcstf Language : Japanese Default : Yes Forced : No Color range : Limited Color primaries : BT.709 Transfer characteristics : BT.709 Matrix coefficients : BT.709 Audio #1 ID : 2 Format : MLP FBA Format/Info : Meridian Lossless Packing FBA Commercial name : Dolby TrueHD Codec ID : A_TRUEHD Duration : 23 min 50 s Bit rate mode : Variable Bit rate : 1 467 kb/s Maximum bit rate : 2 364 kb/s Channel(s) : 6 channels Channel layout : L R C LFE Ls Rs Sampling rate : 48.0 kHz Frame rate : 1 200.000 FPS (40 SPF) Compression mode : Lossless Stream size : 250 MiB (21%) Language : English Default : Yes Forced : No Audio #2 ID : 3 Format : MLP FBA Format/Info : Meridian Lossless Packing FBA Commercial name : Dolby TrueHD Codec ID : A_TRUEHD Duration : 23 min 50 s Bit rate mode : Variable Bit rate : 1 057 kb/s Maximum bit rate : 1 536 kb/s Channel(s) : 2 channels Channel layout : L R Sampling rate : 48.0 kHz Frame rate : 1 200.000 FPS (40 SPF) Compression mode : Lossless Stream size : 180 MiB (15%) Language : Japanese Default : Yes Forced : No Text #1 ID : 4 Format : PGS Muxing mode : zlib Codec ID : S_HDMV/PGS Codec ID/Info : Picture based subtitle format used on BDs/HD-DVDs Duration : 22 min 56 s Bit rate : 4 648 b/s Frame rate : 0.049 FPS Count of elements : 68 Stream size : 781 KiB (0%) Title : Signs / Songs Language : English Default : Yes Forced : No Text #2 ID : 5 Format : PGS Muxing mode : zlib Codec ID : S_HDMV/PGS Codec ID/Info : Picture based subtitle format used on BDs/HD-DVDs Duration : 23 min 46 s Bit rate : 42.9 kb/s Frame rate : 0.430 FPS Count of elements : 613 Stream size : 7.29 MiB (1%) Title : Dialogue Language : English Default : No Forced : No Menu 00:00:00.017 : en:Chapter 01 00:00:47.981 : en:Chapter 02 00:02:17.946 : en:Chapter 03 00:22:14.975 : en:Chapter 04 00:23:44.940 : en:Chapter 05

File list

  • Fruits.Basket.S03.1080p.Blu-Ray.10-Bit.Dual-Audio.TrueHD.x265-iAHD
    • Fruits.Basket.S03E01.1080p.Blu-Ray.10-Bit.Dual-Audio.TrueHD.x265-iAHD.mkv (1.2 GiB)
    • Fruits.Basket.S03E02.1080p.Blu-Ray.10-Bit.Dual-Audio.TrueHD.x265-iAHD.mkv (1.2 GiB)
    • Fruits.Basket.S03E03.1080p.Blu-Ray.10-Bit.Dual-Audio.TrueHD.x265-iAHD.mkv (1.2 GiB)
    • Fruits.Basket.S03E04.1080p.Blu-Ray.10-Bit.Dual-Audio.TrueHD.x265-iAHD.mkv (1.1 GiB)
    • Fruits.Basket.S03E05.1080p.Blu-Ray.10-Bit.Dual-Audio.TrueHD.x265-iAHD.mkv (1.2 GiB)
    • Fruits.Basket.S03E06.1080p.Blu-Ray.10-Bit.Dual-Audio.TrueHD.x265-iAHD.mkv (1.3 GiB)
    • Fruits.Basket.S03E07.1080p.Blu-Ray.10-Bit.Dual-Audio.TrueHD.x265-iAHD.mkv (1.3 GiB)
    • Fruits.Basket.S03E08.1080p.Blu-Ray.10-Bit.Dual-Audio.TrueHD.x265-iAHD.mkv (1.4 GiB)
    • Fruits.Basket.S03E09.1080p.Blu-Ray.10-Bit.Dual-Audio.TrueHD.x265-iAHD.mkv (1.2 GiB)
    • Fruits.Basket.S03E10.1080p.Blu-Ray.10-Bit.Dual-Audio.TrueHD.x265-iAHD.mkv (1.2 GiB)
    • Fruits.Basket.S03E11.1080p.Blu-Ray.10-Bit.Dual-Audio.TrueHD.x265-iAHD.mkv (1.1 GiB)
    • Fruits.Basket.S03E12.1080p.Blu-Ray.10-Bit.Dual-Audio.TrueHD.x265-iAHD.mkv (1.2 GiB)
    • Fruits.Basket.S03E13.1080p.Blu-Ray.10-Bit.Dual-Audio.TrueHD.x265-iAHD.mkv (1.0 GiB)
Thank you for S3! („• ᴗ •„)
I was hoping for US release, but thanks nonetheless
uh yeah thats what this is lol
@Simplistic I’m not sure if your reply was meant for me, but if it is I just wanted to confirm that I asked in the Crunchyroll official discord server if the US blu ray had English written credits in the OP/ED and someone confirmed and said “Yes they do, Only if you're watching the blu ray version and not on Cr”. Also I went on the Funimation website and clicked at the first episode of Season 2 of Fruits Basket and I did see English credits as well. Anyway I’m not trying or being ungrateful in fact I do wait for iAHQ to upload in anticipation and admire the effort, it’s me who is obsessed with this lol I like to be consistent with some series cuz I remember the ancient magus bride when the studio got lazy of making English credits half way through the season and I got confused I thought it was one of those inconsistent torrents where some have their episodes from different sources. Anyway thank you iAHQ for another series and I’m glad that you’re back 💕
iahd exclusively buys USA blurays from what I've seen, you can basically assume if something has TrueHD it's 99.9% likely to be a USA Blu-ray and if not it was remuxed from it and applied to a Japanese one. and blurays usually have all the subtitles fixes that aren't available on the tv version (web version) so they're not really directly comparable
@Simplistic Ah I see what you mean, then I guess I don’t particularly care for remuxed version of something, I just prefer it if the video was from the US blu ray neatly with English credits appearing in the credits sequences. I’m certain it’s great for everyone else just not me. Thank you for explaining and taking your time to read what I had to say. I appreciate it 💕
ah fair enough i guess