Haganai.I.Don't.Have.Many.Friends.S01.1080p.BluRay.10-Bit.Dual-Audio.FLAC5.1.x265-YURASUKA (Boku wa Tomodachi ga Sukunai)

Category:
Date:
2023-02-04 02:55 UTC
Submitter:
Seeders:
11
Information:
Leechers:
1
File size:
13.2 GiB
Completed:
603
Info hash:
6f084f6282a841c6d44c6b15e9335e3c4ba23a05
Haganai: I Don't Have Many Friends / Boku wa Tomodachi ga Sukunai Season 1 (2011) S00E02 is the OVA which is considered S01E13 in absolute order. Note that only the English track is 5.1, the Japanese track is stereo. A/V Source: [BDMV](https://nyaa.si/view/1564642) (JP) 5.1 English Audio + Subtitles: [AC](https://nyaa.si/view/1071515) (Tsundere) [Encode Comparison](https://slow.pics/c/e2kSFn5Z) ``` Complete name : Haganai.I.Don't.Have.Many.Friends.S01E05.1080p.BluRay.10-Bit.Dual-Audio.FLAC5.1.x265-YURASUKA.mkv Format : Matroska Format version : Version 4 File size : 1.07 GiB Duration : 24 min 30 s Overall bit rate mode : Variable Overall bit rate : 6 221 kb/s Movie name : Haganai: I Don't Have Many Friends - S01E05 - YURASUKA Encoded date : UTC 2023-02-04 00:42:42 Writing application : mkvmerge v73.0.0 ('25 or 6 to 4') 64-bit Writing library : libebml v1.4.4 + libmatroska v1.7.1 Attachments : [gg]_Break_Blade_-_1_(1080p)_[A406CFAD]_attachment_fansubBlock.ttf / 40240__.TTF / BellGothicStd-Black.otf / GARABD.TTF / I hate Comic Sans.ttf / KozGoPro-Bold.ttf / KozGoPro-Heavy.ttf / timesbd_0.ttf Video ID : 1 Format : HEVC Format/Info : High Efficiency Video Coding Format profile : Main 10@L5@Main Codec ID : V_MPEGH/ISO/HEVC Duration : 24 min 30 s Bit rate : 3 984 kb/s Width : 1 920 pixels Height : 1 080 pixels Display aspect ratio : 16:9 Frame rate mode : Constant Frame rate : 23.976 (24000/1001) FPS Color space : YUV Chroma subsampling : 4:2:0 Bit depth : 10 bits Bits/(Pixel*Frame) : 0.080 Stream size : 699 MiB (64%) Title : YURASUKA 1080p x265 Writing library : x265 3.5:[Linux][GCC 11.2.0][64 bit] 10bit Encoding settings : cpuid=1111039 / frame-threads=4 / numa-pools=24 / wpp / no-pmode / no-pme / no-psnr / no-ssim / log-level=2 / input-csp=1 / input-res=1920x1080 / interlace=0 / total-frames=0 / level-idc=0 / high-tier=1 / uhd-bd=0 / ref=6 / no-allow-non-conformance / no-repeat-headers / annexb / no-aud / no-hrd / info / hash=0 / no-temporal-layers / open-gop / min-keyint=1 / keyint=360 / gop-lookahead=0 / bframes=16 / b-adapt=2 / b-pyramid / bframe-bias=0 / rc-lookahead=72 / lookahead-slices=4 / scenecut=40 / hist-scenecut=0 / radl=0 / no-splice / no-intra-refresh / ctu=32 / min-cu-size=8 / rect / amp / max-tu-size=32 / tu-inter-depth=4 / tu-intra-depth=4 / limit-tu=0 / rdoq-level=2 / dynamic-rd=4.00 / no-ssim-rd / signhide / tskip / nr-intra=0 / nr-inter=0 / no-constrained-intra / strong-intra-smoothing / max-merge=3 / limit-refs=3 / limit-modes / me=3 / subme=7 / merange=57 / temporal-mvp / no-frame-dup / no-hme / weightp / weightb / no-analyze-src-pics / deblock=0:0 / no-sao / no-sao-non-deblock / rd=4 / selective-sao=0 / no-early-skip / rskip / no-fast-intra / no-tskip-fast / no-cu-lossless / b-intra / no-splitrd-skip / rdpenalty=0 / psy-rd=2.00 / psy-rdoq=2.00 / no-rd-refine / no-lossless / cbqpoffs=0 / crqpoffs=0 / rc=crf / crf=16.0 / qcomp=0.72 / qpstep=4 / stats-write=0 / stats-read=0 / vbv-maxrate=20000 / vbv-bufsize=20000 / vbv-init=0.9 / min-vbv-fullness=50.0 / max-vbv-fullness=80.0 / crf-max=0.0 / crf-min=0.0 / ipratio=1.40 / pbratio=1.30 / aq-mode=3 / aq-strength=0.85 / cutree / zone-count=0 / no-strict-cbr / qg-size=32 / no-rc-grain / qpmax=69 / qpmin=0 / no-const-vbv / sar=0 / overscan=0 / videoformat=5 / range=0 / colorprim=1 / transfer=1 / colormatrix=1 / chromaloc=0 / display-window=0 / cll=0,0 / min-luma=0 / max-luma=1023 / log2-max-poc-lsb=8 / vui-timing-info / vui-hrd-info / slices=1 / no-opt-qp-pps / no-opt-ref-list-length-pps / no-multi-pass-opt-rps / scenecut-bias=0.05 / hist-threshold=0.03 / no-opt-cu-delta-qp / no-aq-motion / no-hdr10 / no-hdr10-opt / no-dhdr10-opt / no-idr-recovery-sei / analysis-reuse-level=0 / analysis-save-reuse-level=0 / analysis-load-reuse-level=0 / scale-factor=0 / refine-intra=0 / refine-inter=0 / refine-mv=1 / refine-ctu-distortion=0 / no-limit-sao / ctu-info=0 / no-lowpass-dct / refine-analysis-type=0 / copy-pic=1 / max-ausize-factor=1.0 / no-dynamic-refine / no-single-sei / no-hevc-aq / no-svt / no-field / qp-adaptation-range=1.00 / scenecut-aware-qp=0conformance-window-offsets / right=0 / bottom=0 / decoder-max-rate=0 / no-vbv-live-multi-pass Language : Japanese Default : Yes Forced : No Color range : Limited Color primaries : BT.709 Transfer characteristics : BT.709 Matrix coefficients : BT.709 Audio #1 ID : 2 Format : FLAC Format/Info : Free Lossless Audio Codec Codec ID : A_FLAC Duration : 24 min 29 s Bit rate mode : Variable Bit rate : 1 557 kb/s Channel(s) : 6 channels Channel layout : L R C LFE Ls Rs Sampling rate : 48.0 kHz Frame rate : 10.417 FPS (4608 SPF) Bit depth : 16 bits Compression mode : Lossless Delay relative to video : 18 ms Stream size : 273 MiB (25%) Title : English FLAC 5.1 Writing library : Lavf59.27.100 Language : English Default : Yes Forced : No MD5 of the unencoded content : 211CB76E90808324EEC80A3DE75F2093 Audio #2 ID : 3 Format : FLAC Format/Info : Free Lossless Audio Codec Codec ID : A_FLAC Duration : 24 min 30 s Bit rate mode : Variable Bit rate : 652 kb/s Channel(s) : 2 channels Channel layout : L R Sampling rate : 48.0 kHz Frame rate : 10.417 FPS (4608 SPF) Bit depth : 16 bits Compression mode : Lossless Stream size : 114 MiB (10%) Title : Japanese FLAC 2.0 Writing library : Lavf59.27.100 Language : Japanese Default : No Forced : No MD5 of the unencoded content : 0841EB3C7C9108CD71F71988525BC4AC Text #1 ID : 4 Format : ASS Codec ID : S_TEXT/ASS Codec ID/Info : Advanced Sub Station Alpha Duration : 22 min 39 s Bit rate : 143 b/s Frame rate : 0.189 FPS Count of elements : 257 Compression mode : Lossless Stream size : 23.7 KiB (0%) Title : Signs/Songs Language : English Default : Yes Forced : Yes Text #2 ID : 5 Format : ASS Codec ID : S_TEXT/ASS Codec ID/Info : Advanced Sub Station Alpha Duration : 24 min 19 s Bit rate : 264 b/s Frame rate : 0.446 FPS Count of elements : 651 Compression mode : Lossless Stream size : 47.2 KiB (0%) Title : Full Subtitles [Tsundere] Language : English Default : No Forced : No Menu 00:00:00.000 : Intro 00:01:30.299 : OP 00:03:10.273 : Episode 00:22:19.213 : ED 00:23:49.220 : Preview ``` Dead end for a sucker that’s a sucker like me. 私のようなカモの行き止まりです。

File list

  • Haganai.I.Don't.Have.Many.Friends.S01.1080p.BluRay.10-Bit.Dual-Audio.FLAC5.1.x265-YURASUKA
    • Haganai.I.Don't.Have.Many.Friends.S00E02.1080p.BluRay.10-Bit.Dual-Audio.FLAC5.1.x265-YURASUKA.mkv (1.2 GiB)
    • Haganai.I.Don't.Have.Many.Friends.S01E01.1080p.BluRay.10-Bit.Dual-Audio.FLAC5.1.x265-YURASUKA.mkv (1023.8 MiB)
    • Haganai.I.Don't.Have.Many.Friends.S01E02.1080p.BluRay.10-Bit.Dual-Audio.FLAC5.1.x265-YURASUKA.mkv (1.0 GiB)
    • Haganai.I.Don't.Have.Many.Friends.S01E03.1080p.BluRay.10-Bit.Dual-Audio.FLAC5.1.x265-YURASUKA.mkv (1.0 GiB)
    • Haganai.I.Don't.Have.Many.Friends.S01E04.1080p.BluRay.10-Bit.Dual-Audio.FLAC5.1.x265-YURASUKA.mkv (1013.0 MiB)
    • Haganai.I.Don't.Have.Many.Friends.S01E05.1080p.BluRay.10-Bit.Dual-Audio.FLAC5.1.x265-YURASUKA.mkv (1.1 GiB)
    • Haganai.I.Don't.Have.Many.Friends.S01E06.1080p.BluRay.10-Bit.Dual-Audio.FLAC5.1.x265-YURASUKA.mkv (1022.7 MiB)
    • Haganai.I.Don't.Have.Many.Friends.S01E07.1080p.BluRay.10-Bit.Dual-Audio.FLAC5.1.x265-YURASUKA.mkv (940.7 MiB)
    • Haganai.I.Don't.Have.Many.Friends.S01E08.1080p.BluRay.10-Bit.Dual-Audio.FLAC5.1.x265-YURASUKA.mkv (1.0 GiB)
    • Haganai.I.Don't.Have.Many.Friends.S01E09.1080p.BluRay.10-Bit.Dual-Audio.FLAC5.1.x265-YURASUKA.mkv (884.1 MiB)
    • Haganai.I.Don't.Have.Many.Friends.S01E10.1080p.BluRay.10-Bit.Dual-Audio.FLAC5.1.x265-YURASUKA.mkv (1.0 GiB)
    • Haganai.I.Don't.Have.Many.Friends.S01E11.1080p.BluRay.10-Bit.Dual-Audio.FLAC5.1.x265-YURASUKA.mkv (1.0 GiB)
    • Haganai.I.Don't.Have.Many.Friends.S01E12.1080p.BluRay.10-Bit.Dual-Audio.FLAC5.1.x265-YURASUKA.mkv (1015.6 MiB)
কোষ্ঠকাঠিন্য
@Yurasuka Are you going to to Haganai Next as well?
I smell something... Smells like a REPLACEMENT in here.

nx6

User
^ I want to like this as a replacement for my existing files, but it's not there and it's the subs' fault. - OP styling is trash. - Dialog color choice and thin outline makes it blend into the background video often. Especially indoors. - I was watching ep 2 last night and there are a couple dialog lines that are too long to fit on one row, so they were displayed in a reduced font size to make them fit instead of just... breaking them into two lines. - On the game playback screens the dialog subs were displayed on top of the in-game dialog typesetting -- when the subs weren't even needed... because the game dialog is literally a printing of the character's lines, so redundant subbing. Yeah, I could fix this stuff, but it would require editing every episode in some way. I might try a remux of the subs from my Coalgirls files into this. I got no qualms with Yurasuka's encoding -- good stuff as usual. Just some stupid TS/QC decisions from the people who made the subs.

nx6

User
I finished my rewatch tonight of this season, watching almost every episode from this release. - Episode 8 has an issue with sub styling when Kodaka has internal thoughts a few times in the episode, like [here](https://i.imgur.com/2lG2CN2.png). I figured this was a missing font originally. But looking at the script, no -- the lines were just left in "Default" style in the script itself instead of set to be the correct style. Looking at ep 7, the normal "Main" style was used for in-head thoughts just like those spoken aloud. - There is an instance of video corruption in the encoding of episode 9 at [12:41](https://i.imgur.com/KGBy7bI.png). This is the only video problem I spotted in all the episodes I viewed.