Demon.Slayer.S02.1080p.Blu-Ray.10-Bit.Dual-Audio.LPCM.x265-iAHD

Category:
Date:
2023-02-02 21:13 UTC
Submitter:
Seeders:
82
Information:
No information.
Leechers:
1
File size:
13.8 GiB
Completed:
3394
Info hash:
e1421da9ceeeabc6017d66253d174f89c903c846
Video ID : 1 Format : HEVC Format/Info : High Efficiency Video Coding Format profile : Main 10@L5@Main Codec ID : V_MPEGH/ISO/HEVC Duration : 26 min 18 s Bit rate : 6 109 kb/s Width : 1 920 pixels Height : 1 080 pixels Display aspect ratio : 16:9 Frame rate mode : Constant Frame rate : 23.976 (24000/1001) FPS Color space : YUV Chroma subsampling : 4:2:0 (Type 0) Bit depth : 10 bits Bits/(Pixel*Frame) : 0.123 Stream size : 1.12 GiB (56%) Writing library : x265 3.5+1-f0c1022b6:[Windows][GCC 10.2.0][64 bit] 10bit Encoding settings : cpuid=1111039 / frame-threads=4 / numa-pools=16 / wpp / no-pmode / no-pme / no-psnr / no-ssim / log-level=2 / input-csp=1 / input-res=1920x1080 / interlace=0 / total-frames=0 / level-idc=0 / high-tier=1 / uhd-bd=0 / ref=6 / no-allow-non-conformance / no-repeat-headers / annexb / no-aud / no-hrd / info / hash=0 / no-temporal-layers / open-gop / min-keyint=24 / keyint=240 / gop-lookahead=0 / bframes=16 / b-adapt=2 / b-pyramid / bframe-bias=0 / rc-lookahead=50 / lookahead-slices=4 / scenecut=40 / hist-scenecut=0 / radl=0 / no-splice / no-intra-refresh / ctu=32 / min-cu-size=8 / no-rect / no-amp / max-tu-size=32 / tu-inter-depth=1 / tu-intra-depth=3 / limit-tu=0 / rdoq-level=2 / dynamic-rd=0.00 / no-ssim-rd / signhide / tskip / nr-intra=0 / nr-inter=0 / no-constrained-intra / no-strong-intra-smoothing / max-merge=3 / limit-refs=3 / limit-modes / me=3 / subme=3 / merange=57 / temporal-mvp / no-frame-dup / no-hme / weightp / no-weightb / no-analyze-src-pics / deblock=1:1 / no-sao / no-sao-non-deblock / rd=4 / selective-sao=0 / no-early-skip / rskip / no-fast-intra / tskip-fast / no-cu-lossless / no-b-intra / no-splitrd-skip / rdpenalty=0 / psy-rd=0.80 / psy-rdoq=2.00 / no-rd-refine / no-lossless / cbqpoffs=0 / crqpoffs=0 / rc=crf / crf=16.0 / qcomp=0.60 / qpstep=4 / stats-write=0 / stats-read=0 / ipratio=1.40 / pbratio=1.30 / aq-mode=3 / aq-strength=1.25 / cutree / zone-count=0 / no-strict-cbr / qg-size=32 / no-rc-grain / qpmax=69 / qpmin=0 / no-const-vbv / sar=1 / overscan=0 / videoformat=5 / range=0 / colorprim=1 / transfer=1 / colormatrix=1 / chromaloc=1 / chromaloc-top=0 / chromaloc-bottom=0 / display-window=0 / cll=0,0 / min-luma=0 / max-luma=1023 / log2-max-poc-lsb=8 / vui-timing-info / vui-hrd-info / slices=1 / no-opt-qp-pps / no-opt-ref-list-length-pps / no-multi-pass-opt-rps / scenecut-bias=0.05 / hist-threshold=0.03 / no-opt-cu-delta-qp / no-aq-motion / no-hdr10 / no-hdr10-opt / no-dhdr10-opt / no-idr-recovery-sei / analysis-reuse-level=0 / analysis-save-reuse-level=0 / analysis-load-reuse-level=0 / scale-factor=0 / refine-intra=0 / refine-inter=0 / refine-mv=1 / refine-ctu-distortion=0 / no-limit-sao / ctu-info=0 / no-lowpass-dct / refine-analysis-type=0 / copy-pic=1 / max-ausize-factor=1.0 / no-dynamic-refine / no-single-sei / no-hevc-aq / no-svt / no-field / qp-adaptation-range=1.00 / scenecut-aware-qp=0conformance-window-offsets / right=0 / bottom=0 / decoder-max-rate=0 / no-vbv-live-multi-pass Language : Japanese Default : Yes Forced : No Color range : Limited Color primaries : BT.709 Transfer characteristics : BT.709 Matrix coefficients : BT.709 Audio #1 ID : 2 Format : PCM Format settings : Little / Signed Codec ID : A_PCM/INT/LIT Duration : 26 min 18 s Bit rate mode : Constant Bit rate : 2 304 kb/s Channel(s) : 2 channels Sampling rate : 48.0 kHz Frame rate : 25.000 FPS (1920 SPF) Bit depth : 24 bits Stream size : 434 MiB (21%) Language : English Default : Yes Forced : No Audio #2 ID : 3 Format : PCM Format settings : Little / Signed Codec ID : A_PCM/INT/LIT Duration : 26 min 18 s Bit rate mode : Constant Bit rate : 2 304 kb/s Channel(s) : 2 channels Sampling rate : 48.0 kHz Frame rate : 25.000 FPS (1920 SPF) Bit depth : 24 bits Stream size : 434 MiB (21%) Language : Japanese Default : Yes Forced : No Text #1 ID : 4 Format : PGS Muxing mode : zlib Codec ID : S_HDMV/PGS Codec ID/Info : Picture based subtitle format used on BDs/HD-DVDs Duration : 25 min 25 s Bit rate : 26.8 kb/s Frame rate : 0.177 FPS Count of elements : 270 Stream size : 4.88 MiB (0%) Title : Signs Language : English Default : Yes Forced : No Text #2 ID : 5 Format : PGS Muxing mode : zlib Codec ID : S_HDMV/PGS Codec ID/Info : Picture based subtitle format used on BDs/HD-DVDs Duration : 25 min 25 s Bit rate : 209 kb/s Frame rate : 1.345 FPS Count of elements : 2053 Stream size : 38.1 MiB (2%) Title : Dialogue Language : English Default : No Forced : No Menu 00:00:00.000 : en:Chapter 01 00:09:07.047 : en:Chapter 02 00:23:41.003 : en:Chapter 03

File list

  • Demon.Slayer.S02.1080p.Blu-Ray.10-Bit.Dual-Audio.LPCM.x265-iAHD
    • Demon.Slayer.S02E01.1080p.Blu-Ray.10-Bit.Dual-Audio.LPCM.x265-iAHD.mkv (2.0 GiB)
    • Demon.Slayer.S02E02.1080p.Blu-Ray.10-Bit.Dual-Audio.LPCM.x265-iAHD.mkv (1.9 GiB)
    • Demon.Slayer.S02E03.1080p.Blu-Ray.10-Bit.Dual-Audio.LPCM.x265-iAHD.mkv (2.2 GiB)
    • Demon.Slayer.S02E04.1080p.Blu-Ray.10-Bit.Dual-Audio.LPCM.x265-iAHD.mkv (2.1 GiB)
    • Demon.Slayer.S02E05.1080p.Blu-Ray.10-Bit.Dual-Audio.LPCM.x265-iAHD.mkv (1.9 GiB)
    • Demon.Slayer.S02E06.1080p.Blu-Ray.10-Bit.Dual-Audio.LPCM.x265-iAHD.mkv (2.0 GiB)
    • Demon.Slayer.S02E07.1080p.Blu-Ray.10-Bit.Dual-Audio.LPCM.x265-iAHD.mkv (1.8 GiB)
Thank you!!!! I can't wait for the rest of season 2 :) welcome back! (BEST DAY EVER)
Welcome back the goat hope you are well long may you continue your great work
Welcome back!!! We are starving for more of your superb releases! P-L-E-A-S-E keep them coming!
Welcome back! Looking forward for your future work.
You're back! :)))