[neoHEVC] Rent a Girlfriend [Season 2] [BD 1080p x265 HEVC AAC] [Dual Audio] Kanojo, Okarishimasu

Category:
Date:
2023-02-02 17:52 UTC
Submitter:
Seeders:
11
Information:
Leechers:
1
File size:
2.8 GiB
Completed:
1044
Info hash:
a0765714ac3b76c7ff89444c471405d7312b5e8a
![](https://i.imgur.com/RBlGp48.png) *Come hang out in **[Discord](https://discord.gg/47Q7FdB54e)*** #### **[Rent a Girlfriend [Season 2]](https://anilist.co/anime/124410/RentaGirlfriend-Season-2/)** ▶️ **[Trailer](https://www.youtube.com/watch?v=Q0KAQ7_YNEk)** --- **Notes:** . Resampled script . Restyled script and changed fonts . Created OP & ED . Created chapters --- **Related Uploads:** **[Season 1](https://nyaa.si/view/1341034)** **[Season 3](https://nyaa.si/view/1784260)** --- **Synopsis** A hopeless college student, Kazuya Kinoshita, meets a graceful rental girlfriend, Chizuru Ichinose, and ends up introducing her as his girlfriend to his family and friends. Time goes on with Kazuya unable to tell the truth, as he's surrounded by devilish ex-girlfriend Mami Nanami, who keeps coming back to tempt him for some reason, hyper-aggressive provisional girlfriend Ruka Sarashina, who doesn't know how to take no for an answer, and super shy but diligent and hardworking younger rental girlfriend, Sumi Sakurasawa… beautiful girlfriends of all types! The pub, the beach, hot springs, Christmas, and New Year’s… Having gone through these challenging events, Kazuya's feelings for Chizuru keep growing stronger. But she reveals a shocking truth that threatens to shake their "relationship" to the very core! ![](https://i.imgur.com/ffZCnaE.png) --- **Language Options** I included two simple scripts that you can apply to these files to do the following (Windows only): 1. Make [Single Audio] Japanese: Throws out *English audio* and *Signs&Songs subtitles* tracks 2. Make [Single Audio] English: Throws out *Japanese audio* and *Dialogue subtitles* tracks To apply these put all the video files into the *Language Options* folder and run the .bat file. *Don't combine them and only use them once together with the base files.* --- **Source** 🗃️ Video and JPN Audio (JPN BDMV): **[[KoushinRip]](https://nyaa.si/view/1594766)** 🗃️ ENG Audio (WEB): **[[Yameii]](https://nyaa.si/view/1553338)** 🗃️ Subtitles: **[[Erai-raws]](https://nyaa.si/view/1547902)** 💬 *Subtitles Info: [Erai-raws] Base [Me] Edits, see notes* *Thank you all for making this possible <3* --- **Media Info** 🆔 **[Full Mediainfo incl. Encoder Settings](https://pastebin.com/V7eae31r)** ``` General Unique ID : 29161964336298778584884864441277551663 (0x15F063D959852BBA9DB09972C119142F) Complete name : Rent a Girlfriend - S02E01.mkv Format : Matroska Format version : Version 4 File size : 219 MiB Duration : 24 min 27 s Overall bit rate : 1 254 kb/s Movie name : Rent a Girlfriend - S02E01 Encoded date : UTC 2023-02-02 11:51:45 Writing application : mkvmerge v72.0.0 ('Minuano (Six-eight)') 64-bit Writing library : libebml v1.4.4 + libmatroska v1.7.1 Attachments : arialbd.ttf / comicbd.ttf / Cutewritten-Regular.ttf / trebuc.ttf / trebucbd.ttf / CRONOSPRO-BOLD.OTF / CRONOSPRO-BOLDIT.OTF / MADE Tommy Soft Regular PERSONAL USE.otf / arialbd.ttf / arialbi.ttf / Arial_0.ttf / ariblk_0.TTF / calibri.ttf / comic_0.ttf / georgiab.ttf / georgiaz.ttf / georgia_0.ttf / impact_0.ttf / Tahoma_0.ttf / times_0.ttf / trebuc_0.ttf / verdana_0.ttf / AdobeArabic-Bold.otf / AdobeArabic-BoldItalic.otf / AdobeArabic-Italic.otf / AdobeArabic-Regular.otf Video ID : 1 Format : HEVC Format/Info : High Efficiency Video Coding Format profile : Main 10@L4@High Codec ID : V_MPEGH/ISO/HEVC Duration : 24 min 27 s Bit rate : 947 kb/s Width : 1 920 pixels Height : 1 080 pixels Display aspect ratio : 16:9 Frame rate mode : Constant Frame rate : 23.976 (24000/1001) FPS Color space : YUV Chroma subsampling : 4:2:0 Bit depth : 10 bits Bits/(Pixel*Frame) : 0.019 Stream size : 166 MiB (76%) Writing library : x265 3.5+1-f0c1022b6:[Windows][GCC 9.2.0][64 bit] 10bit Encoding settings : <Check Link Above> Default : Yes Forced : No Color range : Limited Color primaries : BT.709 Transfer characteristics : BT.709 Matrix coefficients : BT.709 Audio #1 ID : 2 Format : AAC LC Format/Info : Advanced Audio Codec Low Complexity Codec ID : A_AAC-2 Duration : 24 min 27 s Bit rate : 128 kb/s Channel(s) : 2 channels Channel layout : L R Sampling rate : 44.1 kHz Frame rate : 43.066 FPS (1024 SPF) Compression mode : Lossy Stream size : 22.4 MiB (10%) Title : English Language : English Default : Yes Forced : No Audio #2 ID : 3 Format : AAC LC Format/Info : Advanced Audio Codec Low Complexity Codec ID : A_AAC-2 Duration : 24 min 27 s Bit rate : 124 kb/s Channel(s) : 2 channels Channel layout : L R Sampling rate : 48.0 kHz Frame rate : 46.875 FPS (1024 SPF) Compression mode : Lossy Delay relative to video : 7 ms Stream size : 21.8 MiB (10%) Title : Japanese Language : Japanese Default : Yes Forced : No Text #1 ID : 4 Format : ASS Codec ID : S_TEXT/ASS Codec ID/Info : Advanced Sub Station Alpha Duration : 24 min 19 s Bit rate : 464 b/s Frame rate : 0.324 FPS Count of elements : 473 Compression mode : Lossless Stream size : 82.7 KiB (0%) Title : Signs & Songs Language : English Default : Yes Forced : Yes Text #2 ID : 5 Format : ASS Codec ID : S_TEXT/ASS Codec ID/Info : Advanced Sub Station Alpha Duration : 24 min 26 s Bit rate : 599 b/s Frame rate : 0.571 FPS Count of elements : 838 Compression mode : Lossless Stream size : 107 KiB (0%) Title : Dialogue Language : English Default : Yes Forced : No Menu 00:00:00.000 : :Intro 00:02:43.940 : :OP 00:04:13.860 : :Episode ```

File list

  • [neoHEVC] Rent a Girlfriend [Season 2] [BD 1080p x265 HEVC AAC] [Dual Audio]
    • Language Options
      • 1. Make [Single Audio] English.bat (254 Bytes)
      • 2. Make [Single Audio] Japanese.bat (254 Bytes)
      • mkvmerge.exe (9.6 MiB)
      • readme.txt (511 Bytes)
    • Rent a Girlfriend - S02E01.mkv (219.3 MiB)
    • Rent a Girlfriend - S02E02.mkv (244.3 MiB)
    • Rent a Girlfriend - S02E03.mkv (230.1 MiB)
    • Rent a Girlfriend - S02E04.mkv (217.1 MiB)
    • Rent a Girlfriend - S02E05.mkv (274.2 MiB)
    • Rent a Girlfriend - S02E06.mkv (250.2 MiB)
    • Rent a Girlfriend - S02E07.mkv (235.5 MiB)
    • Rent a Girlfriend - S02E08.mkv (233.2 MiB)
    • Rent a Girlfriend - S02E09.mkv (258.6 MiB)
    • Rent a Girlfriend - S02E10.mkv (212.7 MiB)
    • Rent a Girlfriend - S02E11.mkv (262.6 MiB)
    • Rent a Girlfriend - S02E12.mkv (239.6 MiB)
Thank you for the goodies.
Very Unique Art Work🔥
Thank you so much!
There seems to be an issue with ep 9 at 11:45.