[neoHEVC] My Dress-Up Darling [Season 1] [BD 1080p x265 HEVC AAC] [Dual Audio] Sono Bisque Doll wa Koi wo Suru

Category:
Date:
2023-02-02 17:43 UTC
Submitter:
Seeders:
14
Information:
Leechers:
0
File size:
3.5 GiB
Completed:
965
Info hash:
a8c23728b24b5a31e6fc0c6224703db137468c3a
![](https://i.imgur.com/RBlGp48.png) *Come hang out in **[Discord](https://discord.gg/47Q7FdB54e)*** #### **[My Dress-Up Darling [Season 1]](https://myanimelist.net/anime/48736/Sono_Bisque_Doll_wa_Koi_wo_Suru)** ▶️ **[Trailer](https://www.youtube.com/watch?v=8oveGY6h6T8)** --- **Synopsis** High school student Wakana Gojou spends his days perfecting the art of making hina dolls, hoping to eventually reach his grandfather's level of expertise. While his fellow teenagers busy themselves with pop culture, Gojou finds bliss in sewing clothes for his dolls. Nonetheless, he goes to great lengths to keep his unique hobby a secret, as he believes that he would be ridiculed were it revealed. Enter Marin Kitagawa, an extraordinarily pretty girl whose confidence and poise are in stark contrast to Gojou's meekness. It would defy common sense for the friendless Gojou to mix with the likes of Kitagawa, who is always surrounded by her peers. However, the unimaginable happens when Kitagawa discovers Gojou's prowess with a sewing machine and brightly confesses to him about her own hobby: cosplay. Because her sewing skills are pitiable, she decides to enlist his help. As Gojou and Kitagawa work together on one cosplay outfit after another, they cannot help but grow close—even though their lives are worlds apart. ![](https://i.imgur.com/SsligrW.png) --- **Language Options** I included two simple scripts that you can apply to these files to do the following (Windows only): 1. Make [Single Audio] Japanese: Throws out *English audio* and *Signs&Songs subtitles* tracks 2. Make [Single Audio] English: Throws out *Japanese audio* and *Dialogue subtitles* tracks To apply these put all the video files into the *Language Options* folder and run the .bat file. *Don't combine them and only use them once together with the base files.* --- **Source** 🗃️ Video and JPN Audio (JPN BDMV): **[[KoushinRip]](https://nyaa.si/view/1505400)** 🗃️ ENG Audio (WEB): **[[NanDesuKa]](https://nyaa.si/view/1484222)** 🗃️ Subtitles: **[[GJM]](https://nyaa.si/view/1476267)** 💬 *Subtitles Info: [GJM]* *Thank you all for making this possible <3* --- **Media Info** 🆔 **[Full Mediainfo incl. Encoder Settings](https://pastebin.com/zM0WeHLX)** ``` General Unique ID : 248257839432310379799159424100576623483 (0xBAC4B87F15A5B030E4FFA7D2317D7B7B) Complete name : My Dress-Up Darling - S01E01.mkv Format : Matroska Format version : Version 4 File size : 230 MiB Duration : 23 min 41 s Overall bit rate : 1 357 kb/s Movie name : My Dress-Up Darling - S01E01 Encoded date : UTC 2022-03-27 10:05:08 Writing application : mkvmerge v57.0.0 ('Till The End') 64-bit Writing library : libebml v1.4.2 + libmatroska v1.6.4 Attachments : BETINASCRIPTCBOLD.TTF / candarab.ttf / DENNEMARKER.TTF / DJBCHALKITUP.TTF / GANDHISANS-BOLD.OTF / GANDHISANS-BOLDITALIC.OTF / LATO-BOLD.TTF / MARKERFELT-WIDE.TTF / MATISSEPROSTRIPPED-M.OTF / ONEFOUNT.TTF / TSUKUARDGOTHICSTD-B.OTF / AACAKADUT.OTF / ANTIPASTOPRO-DEMIBOLD.TTF Video ID : 1 Format : HEVC Format/Info : High Efficiency Video Coding Format profile : Main 10@L4@High Codec ID : V_MPEGH/ISO/HEVC Duration : 23 min 41 s Bit rate : 1 063 kb/s Width : 1 920 pixels Height : 1 080 pixels Display aspect ratio : 16:9 Frame rate mode : Constant Frame rate : 23.976 (24000/1001) FPS Color space : YUV Chroma subsampling : 4:2:0 Bit depth : 10 bits Bits/(Pixel*Frame) : 0.021 Stream size : 180 MiB (78%) Writing library : x265 3.5+1-f0c1022b6:[Windows][GCC 9.2.0][64 bit] 10bit Encoding settings : <Check Link Above> Default : Yes Forced : No Color range : Limited Color primaries : BT.709 Transfer characteristics : BT.709 Matrix coefficients : BT.709 Audio #1 ID : 2 Format : AAC LC Format/Info : Advanced Audio Codec Low Complexity Codec ID : A_AAC-2 Duration : 23 min 40 s Bit rate : 128 kb/s Channel(s) : 2 channels Channel layout : L R Sampling rate : 44.1 kHz Frame rate : 43.066 FPS (1024 SPF) Compression mode : Lossy Stream size : 21.7 MiB (9%) Title : English Language : English Default : Yes Forced : No Audio #2 ID : 3 Format : AAC LC Format/Info : Advanced Audio Codec Low Complexity Codec ID : A_AAC-2 Duration : 23 min 41 s Bit rate : 126 kb/s Channel(s) : 2 channels Channel layout : L R Sampling rate : 48.0 kHz Frame rate : 46.875 FPS (1024 SPF) Compression mode : Lossy Stream size : 21.4 MiB (9%) Title : Japanese Language : Japanese Default : No Forced : No Text #1 ID : 4 Format : ASS Codec ID : S_TEXT/ASS Codec ID/Info : Advanced Sub Station Alpha Duration : 23 min 39 s Bit rate : 9 896 b/s Frame rate : 1.358 FPS Count of elements : 1929 Compression mode : Lossless Stream size : 1.68 MiB (1%) Title : Signs & Songs Language : English Default : No Forced : Yes Text #2 ID : 5 Format : ASS Codec ID : S_TEXT/ASS Codec ID/Info : Advanced Sub Station Alpha Duration : 23 min 39 s Bit rate : 10.0 kb/s Frame rate : 1.616 FPS Count of elements : 2295 Compression mode : Lossless Stream size : 1.70 MiB (1%) Title : Dialogue Language : English Default : Yes Forced : No Menu 00:00:00.000 : Intro 00:01:35.053 : OP 00:03:04.976 : Main Episode 00:22:04.990 : ED 00:23:34.997 : Preview ```

File list

  • [neoHEVC] My Dress-Up Darling [Season 1] [BD 1080p x265 HEVC AAC] [Dual Audio]
    • Language Options
      • 1. Make [Single Audio] English.bat (254 Bytes)
      • 2. Make [Single Audio] Japanese.bat (254 Bytes)
      • mkvmerge.exe (9.6 MiB)
      • readme.txt (512 Bytes)
    • My Dress-Up Darling - S01E01.mkv (229.8 MiB)
    • My Dress-Up Darling - S01E02.mkv (305.8 MiB)
    • My Dress-Up Darling - S01E03.mkv (289.2 MiB)
    • My Dress-Up Darling - S01E04.mkv (271.2 MiB)
    • My Dress-Up Darling - S01E05.mkv (281.0 MiB)
    • My Dress-Up Darling - S01E06.mkv (294.0 MiB)
    • My Dress-Up Darling - S01E07.mkv (261.4 MiB)
    • My Dress-Up Darling - S01E08.mkv (301.2 MiB)
    • My Dress-Up Darling - S01E09.mkv (269.0 MiB)
    • My Dress-Up Darling - S01E10.mkv (257.4 MiB)
    • My Dress-Up Darling - S01E11.mkv (354.9 MiB)
    • My Dress-Up Darling - S01E12.mkv (456.1 MiB)
Thank you for even more goods.