Invaders.of.the.Rokujouma.S01.1080p.BluRay.10-Bit.FLAC2.0.x265-YURASUKA (Rokujouma no Shinryakusha)

Category:
Date:
2023-01-28 06:47 UTC
Submitter:
Seeders:
8
Information:
Leechers:
0
File size:
9.1 GiB
Completed:
304
Info hash:
3eab8ae2ae864dceb009cd6ce38c06737d6b721e
Invaders of the Rokujouma!? / Rokujouma no Shinryakusha!? Season 1 (2014) A/V Source: Anti-Raws BD Remux (JP) Subtitles Source: [Drag](https://nyaa.si/view/1387883) (FFF, BlurayDesuYo) [Encode Comparison](https://slow.pics/c/TQjOiMCX) ``` Complete name : Invaders.of.the.Rokujouma.S01E09.1080p.BluRay.10-Bit.FLAC2.0.x265-YURASUKA.mkv Format : Matroska Format version : Version 4 File size : 1 008 MiB Duration : 23 min 42 s Overall bit rate mode : Variable Overall bit rate : 5 948 kb/s Movie name : Invaders of the Rokujouma!? - S01E09 - YURASUKA Encoded date : UTC 2023-01-27 20:57:02 Writing application : mkvmerge v73.0.0 ('25 or 6 to 4') 64-bit Writing library : libebml v1.4.4 + libmatroska v1.7.1 Attachments : KGTHISISNOTGOODBYE-REGULAR.TTF / KOZUKAMINCHOPROR.TTF / MYRIADPRO-SEMIBOLD.OTF / MYRIADPRO-SEMIBOLDIT.OTF / WAYNESHAND-PLAIN.TTF / BRUSHSTROKE-REGULAR.TTF / DFMARUGOTHICULTRABLACKG.TTF / ERASERDUST.TTF / FOT-RODINBOKUTOHPROB.TTF / KGSHADOWOFTHEDAY.TTF / LT_3.ttf / LT_3italic_1.ttf / LT_8.ttf / LT_A.ttf / LT_italic.ttf / LT_italic_1.ttf / pencilCASE.ttf / pencilCASE_0.ttf / Tarantel.ttf / Tarantel_1.ttf / Tarantel_3.ttf / 28 Days Later.ttf / 28 Days Later_0.ttf / 28 Days Later_1.ttf / barmeno_extra_bold.ttf / barmeno_extra_bold_1.ttf / barmeno_extra_bold_3.ttf / Champagne_Limousines-ThickBold.ttf / Champagne_Limousines-ThickBold_1.ttf / Champagne_Limousines-ThickBold_3.ttf / foughtknight.ttf Video ID : 1 Format : HEVC Format/Info : High Efficiency Video Coding Format profile : Main 10@L5@Main Codec ID : V_MPEGH/ISO/HEVC Duration : 23 min 42 s Bit rate : 5 199 kb/s Width : 1 920 pixels Height : 1 080 pixels Display aspect ratio : 16:9 Frame rate mode : Constant Frame rate : 23.976 (24000/1001) FPS Color space : YUV Chroma subsampling : 4:2:0 Bit depth : 10 bits Bits/(Pixel*Frame) : 0.105 Stream size : 881 MiB (87%) Title : YURASUKA 1080p x265 Writing library : x265 3.5:[Linux][GCC 11.2.0][64 bit] 10bit Encoding settings : cpuid=1111039 / frame-threads=4 / numa-pools=24 / wpp / no-pmode / no-pme / no-psnr / no-ssim / log-level=2 / input-csp=1 / input-res=1920x1080 / interlace=0 / total-frames=0 / level-idc=0 / high-tier=1 / uhd-bd=0 / ref=6 / no-allow-non-conformance / no-repeat-headers / annexb / no-aud / no-hrd / info / hash=0 / no-temporal-layers / open-gop / min-keyint=1 / keyint=360 / gop-lookahead=0 / bframes=16 / b-adapt=2 / b-pyramid / bframe-bias=0 / rc-lookahead=72 / lookahead-slices=4 / scenecut=40 / hist-scenecut=0 / radl=0 / no-splice / no-intra-refresh / ctu=32 / min-cu-size=8 / rect / amp / max-tu-size=32 / tu-inter-depth=4 / tu-intra-depth=4 / limit-tu=0 / rdoq-level=2 / dynamic-rd=4.00 / no-ssim-rd / signhide / tskip / nr-intra=0 / nr-inter=0 / no-constrained-intra / strong-intra-smoothing / max-merge=3 / limit-refs=3 / limit-modes / me=3 / subme=7 / merange=57 / temporal-mvp / no-frame-dup / no-hme / weightp / weightb / no-analyze-src-pics / deblock=0:0 / no-sao / no-sao-non-deblock / rd=4 / selective-sao=0 / no-early-skip / rskip / no-fast-intra / no-tskip-fast / no-cu-lossless / b-intra / no-splitrd-skip / rdpenalty=0 / psy-rd=2.00 / psy-rdoq=2.00 / no-rd-refine / no-lossless / cbqpoffs=0 / crqpoffs=0 / rc=crf / crf=16.0 / qcomp=0.72 / qpstep=4 / stats-write=0 / stats-read=0 / vbv-maxrate=20000 / vbv-bufsize=20000 / vbv-init=0.9 / min-vbv-fullness=50.0 / max-vbv-fullness=80.0 / crf-max=0.0 / crf-min=0.0 / ipratio=1.40 / pbratio=1.30 / aq-mode=3 / aq-strength=0.85 / cutree / zone-count=0 / no-strict-cbr / qg-size=32 / no-rc-grain / qpmax=69 / qpmin=0 / no-const-vbv / sar=0 / overscan=0 / videoformat=5 / range=0 / colorprim=1 / transfer=1 / colormatrix=1 / chromaloc=0 / display-window=0 / cll=0,0 / min-luma=0 / max-luma=1023 / log2-max-poc-lsb=8 / vui-timing-info / vui-hrd-info / slices=1 / no-opt-qp-pps / no-opt-ref-list-length-pps / no-multi-pass-opt-rps / scenecut-bias=0.05 / hist-threshold=0.03 / no-opt-cu-delta-qp / no-aq-motion / no-hdr10 / no-hdr10-opt / no-dhdr10-opt / no-idr-recovery-sei / analysis-reuse-level=0 / analysis-save-reuse-level=0 / analysis-load-reuse-level=0 / scale-factor=0 / refine-intra=0 / refine-inter=0 / refine-mv=1 / refine-ctu-distortion=0 / no-limit-sao / ctu-info=0 / no-lowpass-dct / refine-analysis-type=0 / copy-pic=1 / max-ausize-factor=1.0 / no-dynamic-refine / no-single-sei / no-hevc-aq / no-svt / no-field / qp-adaptation-range=1.00 / scenecut-aware-qp=0conformance-window-offsets / right=0 / bottom=0 / decoder-max-rate=0 / no-vbv-live-multi-pass Language : Japanese Default : Yes Forced : No Color range : Limited Color primaries : BT.709 Transfer characteristics : BT.709 Matrix coefficients : BT.709 Audio ID : 2 Format : FLAC Format/Info : Free Lossless Audio Codec Codec ID : A_FLAC Duration : 23 min 42 s Bit rate mode : Variable Bit rate : 729 kb/s Channel(s) : 2 channels Channel layout : L R Sampling rate : 48.0 kHz Frame rate : 10.417 FPS (4608 SPF) Bit depth : 16 bits Compression mode : Lossless Stream size : 124 MiB (12%) Title : Japanese FLAC 2.0 Writing library : Lavf59.27.100 Language : Japanese Default : Yes Forced : No MD5 of the unencoded content : F77669F2E9DE54BD942C671B01FA4191 Text #1 ID : 3 Format : ASS Codec ID : S_TEXT/ASS Codec ID/Info : Advanced Sub Station Alpha Duration : 23 min 35 s Bit rate : 2 228 b/s Frame rate : 1.312 FPS Count of elements : 1858 Compression mode : Lossless Stream size : 385 KiB (0%) Title : Full Subtitles [FFF] Language : English Default : Yes Forced : No Text #2 ID : 4 Format : ASS Codec ID : S_TEXT/ASS Codec ID/Info : Advanced Sub Station Alpha Duration : 23 min 35 s Bit rate : 2 030 b/s Frame rate : 1.110 FPS Count of elements : 1571 Compression mode : Lossless Stream size : 351 KiB (0%) Title : Full Subtitles [BlurayDesuYo] Language : English Default : No Forced : No Menu 00:00:00.000 : en:Prologue 00:02:26.021 : en:OP 00:03:56.027 : en:Part A 00:09:56.053 : en:Eyecatch 00:09:59.557 : en:Part B 00:21:55.064 : en:ED 00:23:25.070 : en:Preview ``` Dead end for a sucker that’s a sucker like me. 私のようなカモの行き止まりです。

File list

  • Invaders.of.the.Rokujouma.S01.1080p.BluRay.10-Bit.FLAC2.0.x265-YURASUKA
    • Invaders.of.the.Rokujouma.S01E01.1080p.BluRay.10-Bit.FLAC2.0.x265-YURASUKA.mkv (782.7 MiB)
    • Invaders.of.the.Rokujouma.S01E02.1080p.BluRay.10-Bit.FLAC2.0.x265-YURASUKA.mkv (616.0 MiB)
    • Invaders.of.the.Rokujouma.S01E03.1080p.BluRay.10-Bit.FLAC2.0.x265-YURASUKA.mkv (932.4 MiB)
    • Invaders.of.the.Rokujouma.S01E04.1080p.BluRay.10-Bit.FLAC2.0.x265-YURASUKA.mkv (811.1 MiB)
    • Invaders.of.the.Rokujouma.S01E05.1080p.BluRay.10-Bit.FLAC2.0.x265-YURASUKA.mkv (899.5 MiB)
    • Invaders.of.the.Rokujouma.S01E06.1080p.BluRay.10-Bit.FLAC2.0.x265-YURASUKA.mkv (561.2 MiB)
    • Invaders.of.the.Rokujouma.S01E07.1080p.BluRay.10-Bit.FLAC2.0.x265-YURASUKA.mkv (718.8 MiB)
    • Invaders.of.the.Rokujouma.S01E08.1080p.BluRay.10-Bit.FLAC2.0.x265-YURASUKA.mkv (729.4 MiB)
    • Invaders.of.the.Rokujouma.S01E09.1080p.BluRay.10-Bit.FLAC2.0.x265-YURASUKA.mkv (1008.4 MiB)
    • Invaders.of.the.Rokujouma.S01E10.1080p.BluRay.10-Bit.FLAC2.0.x265-YURASUKA.mkv (677.3 MiB)
    • Invaders.of.the.Rokujouma.S01E11.1080p.BluRay.10-Bit.FLAC2.0.x265-YURASUKA.mkv (939.8 MiB)
    • Invaders.of.the.Rokujouma.S01E12.1080p.BluRay.10-Bit.FLAC2.0.x265-YURASUKA.mkv (641.2 MiB)