[MagicStar] CITY LIVES EP02 [WEBDL] [1080p] [FOD]

Category:
Date:
2023-01-25 02:49 UTC
Submitter:
Seeders:
6
File size:
902.7 MiB
Completed:
378
Info hash:
4d3bd9eb49aaa5b3dab4d0caccf828066a166aa3
HD 1080p from FOD. ![alt text](https://i.ibb.co/Lvb2w6R/5f6e830de4b457dd7af6e7054ddb7f56021bcc24.jpg) ![alt text](https://i.ibb.co/6H5sW7q/City-Lives-EP02-1080p-FOD-WEB-DL-AAC2-0-H-264-Magic-Star-mkv.jpg) ``` General Unique ID : 138526027550246200999791574932754343245 (0x68372477D6DE3D7EFD834AF12229254D) Complete name : City.Lives.EP02.1080p.FOD.WEB-DL.AAC2.0.H.264-MagicStar.mkv Format : Matroska Format version : Version 4 File size : 903 MiB Duration : 22 min 21 s Overall bit rate mode : Variable Overall bit rate : 5 647 kb/s Encoded date : UTC 2023-01-25 01:52:57 Writing application : mkvmerge v50.0.0 ('Awakenings') 64-bit Writing library : libebml v1.4.0 + libmatroska v1.6.2 Video ID : 1 Format : AVC Format/Info : Advanced Video Codec Format profile : High@L4.1 Format settings : CABAC / 2 Ref Frames Format settings, CABAC : Yes Format settings, Reference fra : 2 frames Codec ID : V_MPEG4/ISO/AVC Duration : 22 min 21 s Bit rate mode : Variable Bit rate : 5 452 kb/s Maximum bit rate : 15.0 Mb/s Width : 1 920 pixels Height : 1 080 pixels Display aspect ratio : 16:9 Frame rate mode : Constant Frame rate : 29.970 (29970/1000) FPS Original frame rate : 29.970 (30000/1001) FPS Color space : YUV Chroma subsampling : 4:2:0 Bit depth : 8 bits Scan type : Progressive Bits/(Pixel*Frame) : 0.088 Stream size : 872 MiB (97%) Default : Yes Forced : No Color range : Limited Color primaries : BT.709 Transfer characteristics : BT.709 Matrix coefficients : BT.709 Audio ID : 2 Format : AAC LC Format/Info : Advanced Audio Codec Low Complexity Codec ID : A_AAC-2 Duration : 22 min 20 s Bit rate : 192 kb/s Channel(s) : 2 channels Channel layout : L R Sampling rate : 48.0 kHz Frame rate : 46.875 FPS (1024 SPF) Compression mode : Lossy Stream size : 30.7 MiB (3%) Title : 日本語 [オリジナル] Language : Japanese Default : Yes Forced : No ```

File list