[MagicStar] Yuugure ni, Te wo Tsunagu EP02 [WEBDL] [1080p] [JPN_SUB]

Category:
Date:
2023-01-25 02:48 UTC
Submitter:
Seeders:
11
Information:
Leechers:
4
File size:
1.3 GiB
Completed:
605
Info hash:
7fa292f2800235c14c283238e40cd9f40fc734bb
HD 1080p from TBS official website. No watermark version. Japanese subtitles added. Audio description added. ![alt text](https://i.ibb.co/686DtCq/96411400325.jpg) ![alt text](https://i.ibb.co/55kK0fX/Magic-Star-Yuugure-ni-Te-wo-Tsunagu-EP02-WEBDL-1080p-mkv.jpg) ``` General Unique ID : 61308776715347661541327193649993753551 (0x2E1FA41190061425DAE7C393E51823CF) Complete name : [MagicStar] Yuugure ni, Te wo Tsunagu EP02 [WEBDL] [1080p].mkv Format : Matroska Format version : Version 4 File size : 1.28 GiB Duration : 47 min 25 s Overall bit rate mode : Variable Overall bit rate : 3 855 kb/s Encoded date : UTC 2023-01-25 01:30:57 Writing application : mkvmerge v50.0.0 ('Awakenings') 64-bit Writing library : libebml v1.4.0 + libmatroska v1.6.2 Video ID : 1 Format : AVC Format/Info : Advanced Video Codec Format profile : High@L4 Format settings : CABAC / 4 Ref Frames Format settings, CABAC : Yes Format settings, Reference fra : 4 frames Codec ID : V_MPEG4/ISO/AVC Duration : 47 min 24 s Bit rate mode : Variable Bit rate : 3 468 kb/s Maximum bit rate : 40.0 Mb/s Width : 1 920 pixels Height : 1 080 pixels Display aspect ratio : 16:9 Frame rate mode : Constant Frame rate : 29.970 (29970/1000) FPS Original frame rate : 29.970 (30000/1001) FPS Color space : YUV Chroma subsampling : 4:2:0 Bit depth : 8 bits Scan type : Progressive Bits/(Pixel*Frame) : 0.056 Stream size : 1.15 GiB (90%) Default : Yes Forced : No Color range : Limited Color primaries : BT.709 Transfer characteristics : BT.709 Matrix coefficients : BT.709 Audio #1 ID : 2 Format : AAC LC Format/Info : Advanced Audio Codec Low Complexity Codec ID : A_AAC-2 Duration : 47 min 25 s Bit rate : 192 kb/s Channel(s) : 2 channels Channel layout : L R Sampling rate : 48.0 kHz Frame rate : 46.875 FPS (1024 SPF) Compression mode : Lossy Stream size : 65.0 MiB (5%) Title : 日本語 [オリジナル] Language : Japanese Default : Yes Forced : No Audio #2 ID : 3 Format : AAC LC Format/Info : Advanced Audio Codec Low Complexity Codec ID : A_AAC-2 Duration : 47 min 25 s Bit rate : 192 kb/s Channel(s) : 2 channels Channel layout : L R Sampling rate : 48.0 kHz Frame rate : 46.875 FPS (1024 SPF) Compression mode : Lossy Stream size : 65.1 MiB (5%) Title : 日本語 [解説放送音声] Language : Japanese Default : No Forced : No ```

File list