[MagicStar] Fuunji Nobunaga 1954 [WEBDL] [720p] [AMZN]

Category:
Date:
2023-01-24 22:26 UTC
Submitter:
Seeders:
1
File size:
3.1 GiB
Completed:
119
Info hash:
0d4b814f9d65ee118a579f5c5a61f728f9f2f7a3
HD 720p from Prime Video. Use CBR bitrate mode. As requested by user @RyzakiT. Upload two sources, because Amazon's source does not handle interlacing, so we decided to upload U-Next's source separately. Also backed up the MEGA link. If there are users who are interested in these movies, please also help us complete this torrent, thank you! MEGA Link: https://mega.nz/#P!AgBfvFPEkEHd7xj6WpFggV92aSZJ2oRvt9Y9o5407uobR1GBk6EeArCGy5od21SChL67mP327ezrSEPuysSiP4yMYjWitsMTpXSILoG-a5lEtXL7TzSUXQ Password: nobunaga1950s ************** Support Us Ali (Zhifubao / QR code): https://i.ibb.co/FWV2ggm/1660626347125.png PayPalMe: https://www.paypal.com/paypalme/sakuragikenji ************** ![alt text](https://i.ibb.co/4RH3Nkt/719-Qcd-St-XUL.jpg) ![alt text](https://i.ibb.co/q9vvL8n/Fuunji-Nobunaga-1954-720p-AMZN-WEB-DL-DDP2-0-H-264-Magic-Star-mkv.jpg) ``` General Unique ID : 31232478884800071021026185832142777614 (0x177F28190BB66CE884AD6EC96098AD0E) Complete name : Fuunji.Nobunaga.1954.720p.AMZN.WEB-DL.DDP2.0.H.264-MagicStar.mkv Format : Matroska Format version : Version 4 File size : 3.06 GiB Duration : 1 h 30 min Overall bit rate mode : Constant Overall bit rate : 4 813 kb/s Encoded date : UTC 2023-01-24 20:37:06 Writing application : mkvmerge v50.0.0 ('Awakenings') 64-bit Writing library : libebml v1.4.0 + libmatroska v1.6.2 Cover : Yes Attachments : cover.png Video ID : 1 Format : AVC Format/Info : Advanced Video Codec Format profile : High@L3.1 Format settings : CABAC / 4 Ref Frames Format settings, CABAC : Yes Format settings, Reference fra : 4 frames Codec ID : V_MPEG4/ISO/AVC Duration : 1 h 30 min Bit rate mode : Constant Bit rate : 4 587 kb/s Nominal bit rate : 6 000 kb/s Width : 960 pixels Height : 720 pixels Display aspect ratio : 4:3 Frame rate mode : Constant Frame rate : 23.976 (24000/1001) FPS Color space : YUV Chroma subsampling : 4:2:0 Bit depth : 8 bits Scan type : Progressive Bits/(Pixel*Frame) : 0.277 Stream size : 2.91 GiB (95%) Default : Yes Forced : No Color range : Limited Color primaries : BT.709 Transfer characteristics : BT.709 Matrix coefficients : BT.709 Audio ID : 2 Format : E-AC-3 Format/Info : Enhanced AC-3 Commercial name : Dolby Digital Plus Codec ID : A_EAC3 Duration : 1 h 30 min Bit rate mode : Constant Bit rate : 224 kb/s Channel(s) : 2 channels Channel layout : L R Sampling rate : 48.0 kHz Frame rate : 31.250 FPS (1536 SPF) Compression mode : Lossy Stream size : 146 MiB (5%) Title : 日本語 [オリジナル] Language : Japanese Service kind : Complete Main Default : Yes Forced : No ```

File list