[MagicStar] Liaison - Kodomo no Kokoro Shinryoujo - EP01 [WEBDL] [1080p] [ABEMA-TV] [JPN_SUB]

Category:
Date:
2023-01-24 06:14 UTC
Submitter:
Seeders:
7
Information:
Leechers:
11
File size:
1.4 GiB
Completed:
364
Info hash:
3574e53cddfb0cf9cd58a1ad800e353a65aba34c
HD 1080p from Abema TV. Japanese subtitles added. ![alt text](https://i.ibb.co/dKz2F47/7fe30891-267e-4dfd-aa05-dc1e54b0b424.jpg) ![alt text](https://i.ibb.co/WGJkGYk/Liaison-Kodomo-no-Kokoro-Shinryoujo-EP01-1080p-ABEMA-TV-WEB-DL-AAC2-0-H-264-Magic-Star-mkv.jpg) ``` General Unique ID : 165670745681625924045593218822727832108 (0x7CA306668344323FC644777FC1D8922C) Complete name : Liaison.Kodomo.no.Kokoro.Shinryoujo.EP01.1080p.ABEMA-TV.WEB-DL.AAC2.0.H.264-MagicStar.mkv Format : Matroska Format version : Version 4 File size : 1.41 GiB Duration : 47 min 59 s Overall bit rate mode : Variable Overall bit rate : 4 199 kb/s Encoded date : UTC 2023-01-20 23:21:36 Writing application : mkvmerge v50.0.0 ('Awakenings') 64-bit Writing library : libebml v1.4.0 + libmatroska v1.6.2 Video ID : 1 Format : AVC Format/Info : Advanced Video Codec Format profile : Main@L3.1 Format settings : CABAC / 4 Ref Frames Format settings, CABAC : Yes Format settings, Reference fra : 4 frames Codec ID : V_MPEG4/ISO/AVC Duration : 47 min 59 s Bit rate mode : Variable Bit rate : 4 003 kb/s Maximum bit rate : 40.0 Mb/s Width : 1 920 pixels Height : 1 080 pixels Display aspect ratio : 16:9 Frame rate mode : Constant Frame rate : 29.970 (29970/1000) FPS Original frame rate : 29.970 (30000/1001) FPS Color space : YUV Chroma subsampling : 4:2:0 Bit depth : 8 bits Scan type : Progressive Bits/(Pixel*Frame) : 0.064 Stream size : 1.34 GiB (95%) Default : Yes Forced : No Audio ID : 2 Format : AAC LC Format/Info : Advanced Audio Codec Low Complexity Codec ID : A_AAC-2 Duration : 47 min 59 s Bit rate : 192 kb/s Channel(s) : 2 channels Channel layout : L R Sampling rate : 44.1 kHz Frame rate : 43.066 FPS (1024 SPF) Compression mode : Lossy Stream size : 66.2 MiB (5%) Title : 日本語 [オリジナル] Language : Japanese Default : Yes Forced : No ```

File list