[MagicStar] Reversal Orchestra EP02 [WEBDL] [1080p] [HULU] [JPN_SUB]

Category:
Date:
2023-01-24 04:59 UTC
Submitter:
Seeders:
11
Information:
Leechers:
3
File size:
1.4 GiB
Completed:
654
Info hash:
31b9485f7fc0d435609ee712d2964a48d10c4939
HD 1080p from HULU JAPAN. ![alt text](https://i.ibb.co/QKDj4GK/c6a3a8a0-a2bf-4872-8a25-13014c4504f5b.jpg) ![alt text](https://i.ibb.co/vmMdMvX/Reversal-Orchestra-EP02-1080p-HULU-WEB-DL-AAC2-0-H-264-Magic-Star-mkv.jpg) ``` General Unique ID : 158260369861415957471054087218158425141 (0x770FD6AA1262C5710C33FC028D54D435) Complete name : Reversal.Orchestra.EP02.1080p.HULU.WEB-DL.AAC2.0.H.264-MagicStar.mkv Format : Matroska Format version : Version 4 File size : 1.45 GiB Duration : 51 min 0 s Overall bit rate : 4 069 kb/s Encoded date : UTC 2023-01-19 05:25:27 Writing application : mkvmerge v50.0.0 ('Awakenings') 64-bit Writing library : libebml v1.4.0 + libmatroska v1.6.2 Cover : Yes Attachments : cover.png Video ID : 1 Format : AVC Format/Info : Advanced Video Codec Format profile : High@L4 Format settings : CABAC / 4 Ref Frames Format settings, CABAC : Yes Format settings, Reference fra : 4 frames Codec ID : V_MPEG4/ISO/AVC Duration : 51 min 0 s Bit rate : 3 941 kb/s Width : 1 920 pixels Height : 1 080 pixels Display aspect ratio : 16:9 Frame rate mode : Constant Frame rate : 29.970 (29970/1000) FPS Original frame rate : 29.970 (30000/1001) FPS Color space : YUV Chroma subsampling : 4:2:0 Bit depth : 8 bits Scan type : Progressive Bits/(Pixel*Frame) : 0.063 Stream size : 1.40 GiB (97%) Default : Yes Forced : No Color range : Limited Color primaries : BT.709 Transfer characteristics : BT.709 Matrix coefficients : BT.709 Audio ID : 2 Format : AAC LC Format/Info : Advanced Audio Codec Low Complexity Codec ID : A_AAC-2 Duration : 51 min 0 s Bit rate : 125 kb/s Channel(s) : 2 channels Channel layout : L R Sampling rate : 48.0 kHz Frame rate : 46.875 FPS (1024 SPF) Compression mode : Lossy Stream size : 45.7 MiB (3%) Language : Japanese Default : Yes Forced : No ```

File list