[MagicStar] Themis no Kyoushitsu ~Legal Seishun Hakusho~ EP02 [WEBDL] [1080p] [FOD] [JPN_SUB]

Category:
Date:
2023-01-24 04:33 UTC
Submitter:
Seeders:
13
Information:
Leechers:
5
File size:
1.2 GiB
Completed:
780
Info hash:
bec5af5f83244e3385ba604b42f8e9d09f543d03
HD 1080p from FOD. Japanese subtitles added. Audio description added. ![alt text](https://i.ibb.co/vQM4Dd0/77e83e25fb0c78fbf7fa39b6ba35c082fdfbe53a.jpg) ![alt text](https://i.ibb.co/ZNCG2ng/Themis-no-Kyoushitsu-Legal-Seishun-Hakusho-EP02-1080p-FOD-WEB-DL-AAC2-0-H-264-Magic-Star-mkv.jpg) ``` General Unique ID : 319846215457944616102348265506662228431 (0xF0A023F0EC364BF1F5DAB20A0EF7A1CF) Complete name : Themis.no.Kyoushitsu.Legal.Seishun.Hakusho.EP02.1080p.FOD.WEB-DL.AAC2.0.H.264-MagicStar.mkv Format : Matroska Format version : Version 4 File size : 1.22 GiB Duration : 46 min 19 s Overall bit rate mode : Variable Overall bit rate : 3 775 kb/s Encoded date : UTC 2023-01-19 04:52:24 Writing application : mkvmerge v50.0.0 ('Awakenings') 64-bit Writing library : libebml v1.4.0 + libmatroska v1.6.2 Video ID : 1 Format : AVC Format/Info : Advanced Video Codec Format profile : High@L4.1 Format settings : CABAC / 2 Ref Frames Format settings, CABAC : Yes Format settings, Reference fra : 2 frames Codec ID : V_MPEG4/ISO/AVC Duration : 46 min 19 s Bit rate mode : Variable Bit rate : 3 388 kb/s Maximum bit rate : 15.0 Mb/s Width : 1 920 pixels Height : 1 080 pixels Display aspect ratio : 16:9 Frame rate mode : Constant Frame rate : 29.970 (29970/1000) FPS Original frame rate : 29.970 (30000/1001) FPS Color space : YUV Chroma subsampling : 4:2:0 Bit depth : 8 bits Scan type : Progressive Bits/(Pixel*Frame) : 0.055 Stream size : 1.10 GiB (90%) Default : Yes Forced : No Color range : Limited Color primaries : BT.709 Transfer characteristics : BT.709 Matrix coefficients : BT.709 Audio #1 ID : 2 Format : AAC LC Format/Info : Advanced Audio Codec Low Complexity Codec ID : A_AAC-2 Duration : 46 min 19 s Bit rate : 192 kb/s Channel(s) : 2 channels Channel layout : L R Sampling rate : 48.0 kHz Frame rate : 46.875 FPS (1024 SPF) Compression mode : Lossy Stream size : 63.6 MiB (5%) Title : 日本語 [オリジナル] Language : Japanese Default : Yes Forced : No Audio #2 ID : 3 Format : AAC LC Format/Info : Advanced Audio Codec Low Complexity Codec ID : A_AAC-2 Duration : 46 min 19 s Bit rate : 192 kb/s Channel(s) : 2 channels Channel layout : L R Sampling rate : 48.0 kHz Frame rate : 46.875 FPS (1024 SPF) Compression mode : Lossy Stream size : 63.6 MiB (5%) Title : 日本語 [解説放送音声] Language : Japanese Default : No Forced : No ```

File list