[neoHEVC] Overlord [Season 4] [BD 1080p x265 HEVC AAC] [Dual Audio]

Category:
Date:
2023-01-20 16:57 UTC
Submitter:
Seeders:
33
Information:
Leechers:
2
File size:
4.1 GiB
Completed:
2549
Info hash:
39ae67b27198fa8512569755902290c045e90d3c
![](https://i.imgur.com/RBlGp48.png) *Come hang out in **[Discord](https://discord.gg/47Q7FdB54e)*** #### **[Overlord [Season 4]](https://myanimelist.net/anime/48895/Overlord_IV)** ▶️ **[Trailer](https://www.youtube.com/watch?v=ZOEihZPz3aE)** --- **Notes:** . BD has epsiode previews but there are no subtitles available for that so I didn't bother adjusting the english audio -> no sub no Eng audio for previews --- **Synopsis** E-Rantel, the capital city of the newly established Sorcerer Kingdom, suffers from a dire shortage of goods. Once a prosperous city known for its trade, it now faces a crisis due to its caution—or even fear—of its king, Ainz Ooal Gown. To make amends, Ainz sends Albedo to the city as a diplomatic envoy. Meanwhile, the cardinals of the Slane Theocracy discuss how to retaliate against Ainz after his attack crippled the Re-Estize Kingdom's army, plotting for the Baharuth Empire to take over the Sorcerer Kingdom. However, when Emperor Jircniv Rune Farlord El Nix arranges a meeting with the Theocracy's messengers at a colosseum, he is confronted by none other than Ainz himself. With their secret gathering now out in the open, the emperor and his guests learn that Ainz has challenged the Warrior King, the empire's greatest fighter, to a duel. With Ainz's motivations beyond his comprehension, Jircniv can do nothing but watch as humanity's future changes before his very eyes. ![](https://i.imgur.com/Oh0UrKN.png) --- **Language Options** I included two simple scripts that you can apply to these files to do the following (Windows only): 1. Make [Single Audio] Japanese: Throws out *English audio* and *Signs&Songs subtitles* tracks 2. Make [Single Audio] English: Throws out *Japanese audio* and *Dialogue subtitles* tracks To apply these put all the video files into the *Language Options* folder and run the .bat file. *Don't combine them and only use them once together with the base files.* --- **Source** 🗃️ Video and JPN Audio (JPN BDMV): **[[KoushinRip]](https://nyaa.si/view/1625197)** 🗃️ ENG Audio (WEB): **[[LostYears]](https://nyaa.si/view/1589369)** 🗃️ Subtitles: **[[LostYears]](https://nyaa.si/view/1589369)** 💬 *Subtitles Info: [LostYears]* *Thank you all for making this possible <3* --- **Media Info** 🆔 **[Full Mediainfo incl. Encoder Settings](LINK)** ``` General Unique ID : 120915040011294857365441397084228513178 (0x5AF763BEB0B8BAFF95F05E3807896D9A) Complete name : Overlord - S04E01.mkv Format : Matroska Format version : Version 4 File size : 240 MiB Duration : 24 min 17 s Overall bit rate : 1 379 kb/s Movie name : Overlord - S04E01 Encoded date : UTC 2023-01-20 12:40:04 Writing application : mkvmerge v72.0.0 ('Minuano (Six-eight)') 64-bit Writing library : libebml v1.4.4 + libmatroska v1.7.1 Attachments : CCStickyFingers Regular.otf / ClearFaceSSI-Bold.TTF / IwaOMinPro-Bd-TR.ttf / LB-TS2.ttf / Rosario-Bold.ttf / Rosario-BoldItalic.ttf Video ID : 1 Format : HEVC Format/Info : High Efficiency Video Coding Format profile : Main 10@L4@High Codec ID : V_MPEGH/ISO/HEVC Duration : 24 min 17 s Bit rate : 999 kb/s Width : 1 920 pixels Height : 1 080 pixels Display aspect ratio : 16:9 Frame rate mode : Constant Frame rate : 23.976 (24000/1001) FPS Color space : YUV Chroma subsampling : 4:2:0 (Type 0) Bit depth : 10 bits Bits/(Pixel*Frame) : 0.020 Stream size : 173 MiB (72%) Writing library : x265 3.5+1-f0c1022b6:[Windows][GCC 10.2.0][64 bit] 10bit Encoding settings : <Check Link Above> Default : Yes Forced : No Color range : Limited Color primaries : BT.709 Transfer characteristics : BT.709 Matrix coefficients : BT.709 Audio #1 ID : 2 Format : AAC LC Format/Info : Advanced Audio Codec Low Complexity Codec ID : A_AAC-2 Duration : 23 min 40 s Bit rate : 256 kb/s Channel(s) : 2 channels Channel layout : L R Sampling rate : 48.0 kHz Frame rate : 46.875 FPS (1024 SPF) Compression mode : Lossy Stream size : 43.3 MiB (18%) Title : English Language : English Default : Yes Forced : No Audio #2 ID : 3 Format : AAC LC Format/Info : Advanced Audio Codec Low Complexity Codec ID : A_AAC-2 Duration : 24 min 17 s Bit rate : 125 kb/s Channel(s) : 2 channels Channel layout : L R Sampling rate : 48.0 kHz Frame rate : 46.875 FPS (1024 SPF) Compression mode : Lossy Stream size : 21.8 MiB (9%) Title : Japanese Language : Japanese Default : Yes Forced : No Text #1 ID : 4 Format : ASS Codec ID : S_TEXT/ASS Codec ID/Info : Advanced Sub Station Alpha Duration : 1 min 26 s Bit rate : 350 b/s Frame rate : 0.511 FPS Count of elements : 44 Compression mode : Lossless Stream size : 3.69 KiB (0%) Title : Signs & Songs Language : English Default : Yes Forced : Yes Text #2 ID : 5 Format : ASS Codec ID : S_TEXT/ASS Codec ID/Info : Advanced Sub Station Alpha Duration : 23 min 37 s Bit rate : 176 b/s Frame rate : 0.316 FPS Count of elements : 448 Compression mode : Lossless Stream size : 30.6 KiB (0%) Title : Dialogue Language : English Default : Yes Forced : No Menu 00:00:00.000 : en:Prologue 00:00:45.040 : en:Main 00:22:21.550 : en:Epilogue ```

File list

  • [neoHEVC] Overlord [Season 4] [BD 1080p x265 HEVC AAC] [Dual Audio]
    • Language Options
      • 1. Make [Single Audio] English.bat (254 Bytes)
      • 2. Make [Single Audio] Japanese.bat (254 Bytes)
      • mkvmerge.exe (9.6 MiB)
      • readme.txt (511 Bytes)
    • Overlord - S04E01.mkv (239.6 MiB)
    • Overlord - S04E02.mkv (300.4 MiB)
    • Overlord - S04E03.mkv (258.4 MiB)
    • Overlord - S04E04.mkv (325.3 MiB)
    • Overlord - S04E05.mkv (318.4 MiB)
    • Overlord - S04E06.mkv (318.9 MiB)
    • Overlord - S04E07.mkv (367.4 MiB)
    • Overlord - S04E08.mkv (283.9 MiB)
    • Overlord - S04E09.mkv (387.9 MiB)
    • Overlord - S04E10.mkv (330.7 MiB)
    • Overlord - S04E11.mkv (397.7 MiB)
    • Overlord - S04E12.mkv (340.6 MiB)
    • Overlord - S04E13.mkv (294.7 MiB)
Sasuga Ainz sama!
I've been waiting for this. Thanks Neo san.

neoborn (uploader)

User
![](https://i.imgur.com/IX3oOFy.png)
Any significant difference between TV vs BD?
YES!! Thank you! Does the BD come with s04 of "Ple Ple Pleiades" with subtitles?? ...if yes, any chance you'll do a release of those? From what I can see there's only one full release of those for s04 and the translation was from Google. :(
@tktorrents: A batch for S04 Ple Ple Pleiades can be found here https://nyaa.si/view/1585545

neoborn (uploader)

User
**@tktorrents** I think those video files were on the discs but no subtitles to anything. Not those and not the main series. So I didn't bother including them here. Maybe when the US bluray comes out and they are included then there will be official subtitles.
Thank you for including the single language option. Its above and beyond!