[neoHEVC] [v2] Summer Time Rendering [Season 1] [BD 1080p x265 HEVC AAC] [Dual Audio] Summertime Render

Category:
Date:
2023-01-14 18:20 UTC
Submitter:
Seeders:
59
Information:
Leechers:
3
File size:
9.7 GiB
Completed:
2991
Info hash:
f03439ee0056fb6f927eeb83b72125d7d6c8e668
![](https://i.imgur.com/RBlGp48.png) *Come hang out in **[Discord](https://discord.gg/47Q7FdB54e)*** #### **[Summer Time Rendering [Season 1]](https://myanimelist.net/anime/47194/Summertime_Render)** ▶️ **[Trailer](https://www.youtube.com/watch?v=Js9ZHbAH3bE)** --- **Notes:** . [v2] The English audio source I used had audio errors in several episodes. Replaced it with a better source and redid the audio cutting shennanigans described below. . BD video had episode previews with audio. English WEB audio tracks didn't. Inserted that part of the Japanese audio track into the English audio track (no talking, just some sounds). --- **Synopsis** Since the death of his parents, Shinpei Ajiro had lived with the Kofune family and their two daughters—Mio and Ushio. Although he then left his home island to continue his education in Tokyo, Shinpei returns after Ushio tragically drowns during the attempted rescue of a little girl. During the funeral, his best friend informs him about bruises found around Ushio's neck, casting doubt over the cause of her death. Suspecting a murder has taken place, Shinpei reevaluates recent events, but strange incidents only continue to transpire. Disappearing people and other unexplainable occurrences lead Mio to recall an old folktale referring to entities called "Shadows," which may not be entirely fantasy. Supposedly, an encounter with one's Shadow foretells the person's impending demise. Facing the dark side of Hitogashima Island, Shinpei stands against his grim fate to fulfill Ushio's final will—to protect Mio. ![](https://i.imgur.com/r8yOkmI.png) --- **Language Options** I included two simple scripts that you can apply to these files to do the following (Windows only): 1. Make [Single Audio] Japanese: Throws out *English audio* and *Signs&Songs subtitles* tracks 2. Make [Single Audio] English: Throws out *Japanese audio* and *Dialogue subtitles* tracks To apply these put all the video files into the *Language Options* folder and run the .bat file. *Don't combine them and only use them once together with the base files.* --- **Source** 🗃️ Video and JPN Audio (JPN BDMV): **[Passion]** 🗃️ ENG Audio (WEB): **[[TTGA]](https://nyaa.si/view/1621358)** 🗃️ Subtitles: **[[Commie]](https://nyaa.si/view/1593272)** 💬 *Subtitles Info: [Commie]* *Thank you all for making this possible <3* --- **Media Info** 🆔 **[Full Mediainfo incl. Encoder Settings](https://pastebin.com/YVVbB1Vt)** ``` General Unique ID : 151617659545198104593200849551339747135 (0x72107FC280455F1DA9B28F24AE8AF73F) Complete name : Summer Time Rendering - S01E01.mkv Format : Matroska Format version : Version 4 File size : 586 MiB Duration : 25 min 9 s Overall bit rate : 3 258 kb/s Movie name : Summer Time Rendering - S01E01 Encoded date : UTC 2023-01-06 22:19:11 Writing application : mkvmerge v72.0.0 ('Minuano (Six-eight)') 64-bit Writing library : libebml v1.4.4 + libmatroska v1.7.1 Attachments : Aver.ttf / BrushScriptStd.otf / FONTIN_SANS.OTF / FONTIN_SANS_BI.OTF / framd.ttf / IgniteTheLight.ttf / IwaMinPro-Md-Kami.ttf / IwaOMinPro-Bd-Fate.ttf / Marker Comp.ttf / NervousNellie-Regular.ttf / Paint-hand_limited-set.ttf / Tetris Mania Type.ttf / UrbanJungleDEMO.otf Video ID : 1 Format : HEVC Format/Info : High Efficiency Video Coding Format profile : Main 10@L4@High Codec ID : V_MPEGH/ISO/HEVC Duration : 25 min 9 s Bit rate : 2 889 kb/s Width : 1 920 pixels Height : 1 080 pixels Display aspect ratio : 16:9 Frame rate mode : Constant Frame rate : 23.976 (24000/1001) FPS Color space : YUV Chroma subsampling : 4:2:0 Bit depth : 10 bits Bits/(Pixel*Frame) : 0.058 Stream size : 520 MiB (89%) Writing library : x265 3.5+1-f0c1022b6:[Windows][GCC 9.2.0][64 bit] 10bit Encoding settings : <Check Link Above> Default : Yes Forced : No Color range : Limited Color primaries : BT.709 Transfer characteristics : BT.709 Matrix coefficients : BT.709 Audio #1 ID : 2 Format : AAC LC Format/Info : Advanced Audio Codec Low Complexity Codec ID : A_AAC-2 Duration : 25 min 9 s Bit rate : 132 kb/s Channel(s) : 2 channels Channel layout : L R Sampling rate : 48.0 kHz Frame rate : 46.875 FPS (1024 SPF) Compression mode : Lossy Stream size : 23.4 MiB (4%) Title : English Language : English Default : Yes Forced : No Audio #2 ID : 3 Format : AAC LC Format/Info : Advanced Audio Codec Low Complexity Codec ID : A_AAC-2 Duration : 25 min 9 s Bit rate : 223 kb/s Channel(s) : 2 channels Channel layout : L R Sampling rate : 48.0 kHz Frame rate : 46.875 FPS (1024 SPF) Compression mode : Lossy Stream size : 40.2 MiB (7%) Title : Japanese Language : Japanese Default : No Forced : No Text #1 ID : 4 Format : ASS Codec ID : S_TEXT/ASS Codec ID/Info : Advanced Sub Station Alpha Duration : 23 min 36 s Bit rate : 103 b/s Frame rate : 0.123 FPS Count of elements : 174 Compression mode : Lossless Stream size : 17.8 KiB (0%) Title : Signs & Songs Language : English Default : No Forced : Yes Text #2 ID : 5 Format : ASS Codec ID : S_TEXT/ASS Codec ID/Info : Advanced Sub Station Alpha Duration : 24 min 52 s Bit rate : 183 b/s Frame rate : 0.334 FPS Count of elements : 499 Compression mode : Lossless Stream size : 33.4 KiB (0%) Title : Dialogue Language : English Default : Yes Forced : No Menu 00:00:00.033 : en:Intro 00:04:47.020 : en:OP 00:06:16.940 : en:Part A 00:10:27.940 : en:Part B 00:23:24.930 : en:ED 00:24:54.890 : en:Preview ```

File list

  • [neoHEVC] [v2] Summer Time Rendering [Season 1] [BD 1080p x265 HEVC AAC] [Dual Audio]
    • Language Options
      • 1. Make [Single Audio] English.bat (254 Bytes)
      • 2. Make [Single Audio] Japanese.bat (254 Bytes)
      • mkvmerge.exe (9.6 MiB)
      • readme.txt (511 Bytes)
    • Summer Time Rendering - S01E01 [v2].mkv (586.5 MiB)
    • Summer Time Rendering - S01E02 [v2].mkv (494.5 MiB)
    • Summer Time Rendering - S01E03 [v2].mkv (259.5 MiB)
    • Summer Time Rendering - S01E04 [v2].mkv (457.7 MiB)
    • Summer Time Rendering - S01E05 [v2].mkv (452.4 MiB)
    • Summer Time Rendering - S01E06 [v2].mkv (442.1 MiB)
    • Summer Time Rendering - S01E07 [v2].mkv (428.4 MiB)
    • Summer Time Rendering - S01E08 [v2].mkv (497.7 MiB)
    • Summer Time Rendering - S01E09 [v2].mkv (446.8 MiB)
    • Summer Time Rendering - S01E10 [v2].mkv (443.6 MiB)
    • Summer Time Rendering - S01E11 [v2].mkv (389.2 MiB)
    • Summer Time Rendering - S01E12 [v2].mkv (497.3 MiB)
    • Summer Time Rendering - S01E13 [v2].mkv (525.2 MiB)
    • Summer Time Rendering - S01E14 [v2].mkv (279.2 MiB)
    • Summer Time Rendering - S01E15 [v2].mkv (341.2 MiB)
    • Summer Time Rendering - S01E16 [v2].mkv (238.6 MiB)
    • Summer Time Rendering - S01E17 [v2].mkv (384.8 MiB)
    • Summer Time Rendering - S01E18 [v2].mkv (291.0 MiB)
    • Summer Time Rendering - S01E19 [v2].mkv (373.6 MiB)
    • Summer Time Rendering - S01E20 [v2].mkv (373.5 MiB)
    • Summer Time Rendering - S01E21 [v2].mkv (359.3 MiB)
    • Summer Time Rendering - S01E22 [v2].mkv (314.4 MiB)
    • Summer Time Rendering - S01E23 [v2].mkv (377.7 MiB)
    • Summer Time Rendering - S01E24 [v2].mkv (398.7 MiB)
    • Summer Time Rendering - S01E25 [v2].mkv (262.4 MiB)