Bunny.Drop.S01.1080p.BluRay.10-Bit.FLAC2.0.x265-YURASUKA (Usagi Drop)

Category:
Date:
2023-01-07 05:56 UTC
Submitter:
Seeders:
11
Information:
Leechers:
1
File size:
8.2 GiB
Completed:
435
Info hash:
f2b8fb493dc2e3512052540a9478d7a5050bed46
Bunny Drop / Usagi Drop Season 1 (2011) A/V Source: [BDMV](https://nyaa.si/view/1290976) (JP) Subtitles Source: [Pog42](https://nyaa.si/view/1366390) (Taka/Zurako retimed by Pog42) [Encode Comparison](https://slow.pics/c/xSVCXJB8) ``` Complete name : Bunny.Drop.S01E08.1080p.BluRay.10-Bit.FLAC2.0.x265-YURASUKA.mkv Format : Matroska Format version : Version 4 File size : 792 MiB Duration : 22 min 51 s Overall bit rate mode : Variable Overall bit rate : 4 842 kb/s Movie name : Bunny Drop - S01E08 - YURASUKA Encoded date : UTC 2023-01-07 03:08:12 Writing application : mkvmerge v73.0.0 ('25 or 6 to 4') 64-bit Writing library : libebml v1.4.4 + libmatroska v1.7.1 / Lavf58.64.100 Attachments : Footlight MT Extra Bold.ttf / chalk.ttf / AGaramondPro-Bold.otf / Bastard.ttf / CTMercuriusStd-Medium.otf / FootlightMTStd-ExtraBold.otf / MTCORSVA.TTF / epgyobld.ttf / Footlight MT.ttf / segoepr.ttf / ShinnDemiBold.ttf / tektonpro-regular.otf / invisibl.ttf / VNARIAL.TTF / PURIB10.TTF / arial.ttf / TektonPro-Bold.otf / FRAHV.TTF / LCALLIG.TTF / comic.ttf / StoneSansStd-Semibold.otf / mentone-semibold.otf / Dance Craze BV.ttf / Complete in Him.ttf Video ID : 1 Format : HEVC Format/Info : High Efficiency Video Coding Format profile : Main 10@L5@Main Codec ID : V_MPEGH/ISO/HEVC Duration : 22 min 51 s Bit rate : 4 146 kb/s Width : 1 920 pixels Height : 1 080 pixels Display aspect ratio : 16:9 Frame rate mode : Constant Frame rate : 23.976 (24000/1001) FPS Color space : YUV Chroma subsampling : 4:2:0 Bit depth : 10 bits Bits/(Pixel*Frame) : 0.083 Stream size : 678 MiB (86%) Title : YURASUKA 1080p x265 Writing library : x265 3.5:[Linux][GCC 11.2.0][64 bit] 10bit Encoding settings : cpuid=1111039 / frame-threads=4 / numa-pools=24 / wpp / no-pmode / no-pme / no-psnr / no-ssim / log-level=2 / input-csp=1 / input-res=1920x1080 / interlace=0 / total-frames=0 / level-idc=0 / high-tier=1 / uhd-bd=0 / ref=6 / no-allow-non-conformance / no-repeat-headers / annexb / no-aud / no-hrd / info / hash=0 / no-temporal-layers / open-gop / min-keyint=1 / keyint=360 / gop-lookahead=0 / bframes=16 / b-adapt=2 / b-pyramid / bframe-bias=0 / rc-lookahead=72 / lookahead-slices=4 / scenecut=40 / hist-scenecut=0 / radl=0 / no-splice / no-intra-refresh / ctu=32 / min-cu-size=8 / rect / amp / max-tu-size=32 / tu-inter-depth=4 / tu-intra-depth=4 / limit-tu=0 / rdoq-level=2 / dynamic-rd=4.00 / no-ssim-rd / signhide / tskip / nr-intra=0 / nr-inter=0 / no-constrained-intra / strong-intra-smoothing / max-merge=3 / limit-refs=3 / limit-modes / me=3 / subme=7 / merange=57 / temporal-mvp / no-frame-dup / no-hme / weightp / weightb / no-analyze-src-pics / deblock=0:0 / no-sao / no-sao-non-deblock / rd=4 / selective-sao=0 / no-early-skip / rskip / no-fast-intra / no-tskip-fast / no-cu-lossless / b-intra / no-splitrd-skip / rdpenalty=0 / psy-rd=2.00 / psy-rdoq=2.00 / no-rd-refine / no-lossless / cbqpoffs=0 / crqpoffs=0 / rc=crf / crf=16.0 / qcomp=0.72 / qpstep=4 / stats-write=0 / stats-read=0 / vbv-maxrate=11000 / vbv-bufsize=11000 / vbv-init=0.9 / min-vbv-fullness=50.0 / max-vbv-fullness=80.0 / crf-max=0.0 / crf-min=0.0 / ipratio=1.40 / pbratio=1.30 / aq-mode=3 / aq-strength=0.85 / cutree / zone-count=0 / no-strict-cbr / qg-size=32 / no-rc-grain / qpmax=69 / qpmin=0 / no-const-vbv / sar=0 / overscan=0 / videoformat=5 / range=0 / colorprim=1 / transfer=1 / colormatrix=1 / chromaloc=0 / display-window=0 / cll=0,0 / min-luma=0 / max-luma=1023 / log2-max-poc-lsb=8 / vui-timing-info / vui-hrd-info / slices=1 / no-opt-qp-pps / no-opt-ref-list-length-pps / no-multi-pass-opt-rps / scenecut-bias=0.05 / hist-threshold=0.03 / no-opt-cu-delta-qp / no-aq-motion / no-hdr10 / no-hdr10-opt / no-dhdr10-opt / no-idr-recovery-sei / analysis-reuse-level=0 / analysis-save-reuse-level=0 / analysis-load-reuse-level=0 / scale-factor=0 / refine-intra=0 / refine-inter=0 / refine-mv=1 / refine-ctu-distortion=0 / no-limit-sao / ctu-info=0 / no-lowpass-dct / refine-analysis-type=0 / copy-pic=1 / max-ausize-factor=1.0 / no-dynamic-refine / no-single-sei / no-hevc-aq / no-svt / no-field / qp-adaptation-range=1.00 / scenecut-aware-qp=0conformance-window-offsets / right=0 / bottom=0 / decoder-max-rate=0 / no-vbv-live-multi-pass Language : Japanese Default : Yes Forced : No Color range : Limited Color primaries : BT.709 Transfer characteristics : BT.709 Matrix coefficients : BT.709 Audio ID : 2 Format : FLAC Format/Info : Free Lossless Audio Codec Codec ID : A_FLAC Duration : 22 min 51 s Bit rate mode : Variable Bit rate : 660 kb/s Channel(s) : 2 channels Channel layout : L R Sampling rate : 48.0 kHz Frame rate : 10.417 FPS (4608 SPF) Bit depth : 16 bits Compression mode : Lossless Stream size : 108 MiB (14%) Title : Japanese FLAC 2.0 Writing library : Lavf59.27.100 Language : Japanese Default : Yes Forced : No MD5 of the unencoded content : E9E0A523BB7FA9E1F263AD72B7BFAE85 Text ID : 3 Format : ASS Codec ID : S_TEXT/ASS Codec ID/Info : Advanced Sub Station Alpha Duration : 22 min 49 s Bit rate : 161 b/s Frame rate : 0.259 FPS Count of elements : 354 Compression mode : Lossless Stream size : 27.0 KiB (0%) Title : English Subtitles [Taka/Zurako] Language : English Default : Yes Forced : No Menu 00:00:00.000 : Avant 00:01:03.021 : OP 00:02:33.027 : Part A 00:12:45.056 : Part B 00:20:05.120 : ED 00:21:35.294 : Epilogue ``` Dead end for a sucker that’s a sucker like me. 私のようなカモの行き止まりです。

File list

  • Bunny.Drop.S01.1080p.BluRay.10-Bit.FLAC2.0.x265-YURASUKA
    • Bunny.Drop.S00E01.1080p.BluRay.10-Bit.FLAC2.0.x265-YURASUKA.mkv (115.2 MiB)
    • Bunny.Drop.S00E02.1080p.BluRay.10-Bit.FLAC2.0.x265-YURASUKA.mkv (120.4 MiB)
    • Bunny.Drop.S00E03.1080p.BluRay.10-Bit.FLAC2.0.x265-YURASUKA.mkv (227.4 MiB)
    • Bunny.Drop.S00E04.1080p.BluRay.10-Bit.FLAC2.0.x265-YURASUKA.mkv (101.2 MiB)
    • Bunny.Drop.S01E01.1080p.BluRay.10-Bit.FLAC2.0.x265-YURASUKA.mkv (757.9 MiB)
    • Bunny.Drop.S01E02.1080p.BluRay.10-Bit.FLAC2.0.x265-YURASUKA.mkv (702.7 MiB)
    • Bunny.Drop.S01E03.1080p.BluRay.10-Bit.FLAC2.0.x265-YURASUKA.mkv (623.1 MiB)
    • Bunny.Drop.S01E04.1080p.BluRay.10-Bit.FLAC2.0.x265-YURASUKA.mkv (763.7 MiB)
    • Bunny.Drop.S01E05.1080p.BluRay.10-Bit.FLAC2.0.x265-YURASUKA.mkv (641.3 MiB)
    • Bunny.Drop.S01E06.1080p.BluRay.10-Bit.FLAC2.0.x265-YURASUKA.mkv (787.5 MiB)
    • Bunny.Drop.S01E07.1080p.BluRay.10-Bit.FLAC2.0.x265-YURASUKA.mkv (628.0 MiB)
    • Bunny.Drop.S01E08.1080p.BluRay.10-Bit.FLAC2.0.x265-YURASUKA.mkv (791.7 MiB)
    • Bunny.Drop.S01E09.1080p.BluRay.10-Bit.FLAC2.0.x265-YURASUKA.mkv (757.4 MiB)
    • Bunny.Drop.S01E10.1080p.BluRay.10-Bit.FLAC2.0.x265-YURASUKA.mkv (624.4 MiB)
    • Bunny.Drop.S01E11.1080p.BluRay.10-Bit.FLAC2.0.x265-YURASUKA.mkv (773.3 MiB)