[ShouryuuReppa] Chainsaw Man 12 1080p [HEVC][x265][10bit][AAC]

Category:
Date:
2022-12-28 06:17 UTC
Submitter:
Seeders:
0
Information:
No information.
Leechers:
0
File size:
620.5 MiB
Completed:
233
Info hash:
4ee7b7045e587964971d843437fce1319283b13a
Source: SubsPlease Encoding Settings ffmpeg -hide_banner -v verbose -i "[SubsPlease] Chainsaw Man - 12 (1080p) [179132FA].mkv" -map 0 -c:v libx265 -preset slow -crf 19 -x265-params ref=4:min-keyint=24:keyint=240:bframes=8:rc-lookahead=40:lookahead-slices=0:constrained-intra=1:rdoq-level=1:deblock=1,1:psy-rd=1.50:psy-rdoq=2.00:aq-mode=3:range=limited:colorprim=bt709:transfer=bt709:colormatrix=bt709:limit-sao=1 -pix_fmt yuv420p10le -acodec copy -scodec copy "[ShouryuuReppa] Chainsaw Man 12 1080p [HEVC][x265][10bit][AAC].mkv" frame=34406 fps=1.9 q=27.0 Lsize= 635694kB time=00:23:55.06 bitrate=3628.8kbits/s speed=0.0772x video:606214kB audio:22423kB subtitle:10kB other streams:0kB global headers:6351kB muxing overhead: 1.120886% x265 [info]: frame I: 451, Avg QP:14.54 kb/s: 25173.06 x265 [info]: frame P: 7802, Avg QP:16.45 kb/s: 9640.96 x265 [info]: frame B: 26153, Avg QP:23.77 kb/s: 1241.51 x265 [info]: Weighted P-Frames: Y:4.2% UV:2.8% x265 [info]: consecutive B-frames: 22.9% 7.9% 6.6% 21.5% 8.9% 13.3% 7.8% 5.9% 5.1% encoded 34406 frames in 18588.13s (1.85 fps), 3459.89 kb/s, Avg QP:21.99 MediaInfo General Unique ID : 263085659796087287581082778114615771348 (0xC5EC747BCC6CEDB096B904B9072D80D4) Complete name : /home/mrclay/Downloads/HEVC/[ShouryuuReppa] Chainsaw Man 1080p [HEVC][x265][10bit][AAC]/[ShouryuuReppa] Chainsaw Man 12 1080p [HEVC][x265][10bit][AAC].mkv Format : Matroska Format version : Version 4 File size : 621 MiB Duration : 23 min 55 s Overall bit rate : 3 627 kb/s Movie name : Chainsaw Man 12 Encoded date : UTC 2022-12-28 06:12:39 Writing application : mkvmerge v45.0.0 ('Heaven in Pennies') 64-bit Writing library : libebml v1.3.10 + libmatroska v1.5.2 / Lavf58.76.100 Attachments : Roboto-Medium.ttf / Roboto-MediumItalic.ttf / arial.ttf / arialbd.ttf / comic.ttf / comicbd.ttf / times.ttf / timesbd.ttf / trebuc.ttf / trebucbd.ttf / verdana.ttf / verdanab.ttf / CONSOLA.TTF / CONSOLAB.TTF Video ID : 1 Format : HEVC Format/Info : High Efficiency Video Coding Format profile : Main 10@L4@Main Codec ID : V_MPEGH/ISO/HEVC Duration : 23 min 55 s Bit rate : 3 461 kb/s Width : 1 920 pixels Height : 1 080 pixels Display aspect ratio : 16:9 Frame rate mode : Constant Frame rate : 23.976 (24000/1001) FPS Color space : YUV Chroma subsampling : 4:2:0 Bit depth : 10 bits Bits/(Pixel*Frame) : 0.070 Stream size : 592 MiB (95%) Writing library : x265 3.5+1-f0c1022b6:[Linux][GCC 9.3.0][64 bit] 10bit Encoding settings : cpuid=1111039 / frame-threads=2 / wpp / no-pmode / no-pme / no-psnr / no-ssim / log-level=2 / input-csp=1 / input-res=1920x1080 / interlace=0 / total-frames=0 / level-idc=0 / high-tier=1 / uhd-bd=0 / ref=4 / no-allow-non-conformance / no-repeat-headers / annexb / no-aud / no-hrd / info / hash=0 / no-temporal-layers / open-gop / min-keyint=24 / keyint=240 / gop-lookahead=0 / bframes=8 / b-adapt=2 / b-pyramid / bframe-bias=0 / rc-lookahead=40 / lookahead-slices=0 / scenecut=40 / hist-scenecut=0 / radl=0 / no-splice / no-intra-refresh / ctu=64 / min-cu-size=8 / rect / no-amp / max-tu-size=32 / tu-inter-depth=1 / tu-intra-depth=1 / limit-tu=0 / rdoq-level=1 / dynamic-rd=0.00 / no-ssim-rd / signhide / no-tskip / nr-intra=0 / nr-inter=0 / constrained-intra / strong-intra-smoothing / max-merge=3 / limit-refs=3 / limit-modes / me=3 / subme=3 / merange=57 / temporal-mvp / no-frame-dup / no-hme / weightp / no-weightb / no-analyze-src-pics / deblock=1:1 / sao / no-sao-non-deblock / rd=4 / selective-sao=4 / no-early-skip / rskip / no-fast-intra / no-tskip-fast / no-cu-lossless / no-b-intra / no-splitrd-skip / rdpenalty=0 / psy-rd=1.50 / psy-rdoq=2.00 / no-rd-refine / no-lossless / cbqpoffs=0 / crqpoffs=0 / rc=crf / crf=19.0 / qcomp=0.60 / qpstep=4 / stats-write=0 / stats-read=0 / ipratio=1.40 / pbratio=1.30 / aq-mode=3 / aq-strength=1.00 / cutree / zone-count=0 / no-strict-cbr / qg-size=32 / no-rc-grain / qpmax=69 / qpmin=0 / no-const-vbv / sar=1 / overscan=0 / videoformat=5 / range=0 / colorprim=1 / transfer=1 / colormatrix=1 / chromaloc=0 / display-window=0 / cll=0,0 / min-luma=0 / max-luma=1023 / log2-max-poc-lsb=8 / vui-timing-info / vui-hrd-info / slices=1 / no-opt-qp-pps / no-opt-ref-list-length-pps / no-multi-pass-opt-rps / scenecut-bias=0.05 / hist-threshold=0.03 / no-opt-cu-delta-qp / no-aq-motion / no-hdr10 / no-hdr10-opt / no-dhdr10-opt / no-idr-recovery-sei / analysis-reuse-level=0 / analysis-save-reuse-level=0 / analysis-load-reuse-level=0 / scale-factor=0 / refine-intra=0 / refine-inter=0 / refine-mv=1 / refine-ctu-distortion=0 / limit-sao / ctu-info=0 / no-lowpass-dct / refine-analysis-type=0 / copy-pic=1 / max-ausize-factor=1.0 / no-dynamic-refine / no-single-sei / no-hevc-aq / no-svt / no-field / qp-adaptation-range=1.00 / scenecut-aware-qp=0conformance-window-offsets / right=0 / bottom=0 / decoder-max-rate=0 / no-vbv-live-multi-pass Default : Yes Forced : No Color range : Limited Color primaries : BT.709 Transfer characteristics : BT.709 Matrix coefficients : BT.709 Audio ID : 2 Format : AAC LC Format/Info : Advanced Audio Codec Low Complexity Codec ID : A_AAC-2 Duration : 23 min 55 s Bit rate : 128 kb/s Channel(s) : 2 channels Channel layout : L R Sampling rate : 44.1 kHz Frame rate : 43.066 FPS (1024 SPF) Compression mode : Lossy Stream size : 21.9 MiB (4%) Title : ShouryuuReppa Language : Japanese Default : Yes Forced : No Text ID : 3 Format : ASS Codec ID : S_TEXT/ASS Codec ID/Info : Advanced Sub Station Alpha Duration : 23 min 37 s Bit rate : 59 b/s Count of elements : 174 Compression mode : Lossless Stream size : 10.2 KiB (0%) Title : SubsPlease Language : English Default : Yes Forced : No

File list

  • [ShouryuuReppa] Chainsaw Man 12 1080p [HEVC][x265][10bit][AAC].mkv (620.5 MiB)