[MiraiAnime] Do It Yourself!! (2022) [Season 1] [WEBDL 1080p x264 AVC AAC] [ENG-SUB]

Category:
Date:
2022-12-24 14:30 UTC
Submitter:
Seeders:
5
Information:
Leechers:
1
File size:
16.2 GiB
Completed:
165
Info hash:
054b22abc57b934a2c462122e93f2c3b110b7e2f
|![](https://i.imgur.com/2ayEuJi.png)| | :-: | | [**Do It Yourself!! - MyAnimeList.net**](https://myanimelist.net/anime/48542/Do_It_Yourself) | ___ #### **Information:** I tried to typeset as much as possible for maximum immersion. CR's teams don't usually translate every single sign, which by itself already introduces a few gaps. So, I tried my best mitigating this by going through other languages like german, which sometimes included more signs. Because of time management reasons (*lazyness*), I decided to skip often occurring signs, like the club nametags, if they only appeared blurred in the background. OP and ED lyrics have been *stolen* from Anime Chap's release and got very simple karaoke animations. When it comes to the video I'd suggest you to just wait for the Blu-Ray and hope the studio wasn't as high as they were doing this. Just while watching I was able to spot different encoding errors, so I didn't even bother encoding anything at all. If you only need the subtitles look here: **https://animetosho.org/view/miraianime-yourself-2022-season-1-webdl-1080p-x264.n1617278** I hope you'll enjoy this cute little series (I didn't), and wish you great holidays! I want to make anime more easily enjoyable and free for others, and have no problems with anyone using any part of this release, if that makes it easier. ___ ##### For requests, questions or ddl, join my (small) discord here: **https://discord.gg/8n7H3ArdCW** ##### I highly suggest you to use [mpv](https://mpv.io/) for playback. ___ **Summary:** * typesetting * created chapters * audio untouched * video untouched * naming scheme matches TheTVDB.com (for plex/radarr/emby/jellyfin/kodi compatibility) |Track-Type | Title | Attributes | |:-------------:|:-------------:|:-----:| |video|Japanese|x264 AVC 10bit 23.976FPS 1920x1080| |audio|Japanese|44.1kHz stereo AAC| |subtitles|English|ass| |chapters| ___ #### **Source:** [**Erai-Raws**](https://nyaa.si/view/1616430) - video, audio, subtitles [**Anime-Chap**](https://nyaa.si/view/1608612) - OPED [**Pizza**](https://nyaa.si/view/1613967) - one font ___ #### **FFprobe:** ``` Input #0, matroska,webm, from 'Do It Yourself!! (2022) - S01E01 - What Is DIY.mkv': Metadata: ENCODER : Lavf59.27.100 Duration: 00:23:40.11, start: 0.000000, bitrate: 8187 kb/s Chapters: Chapter #0:0: start 0.000000, end 139.000000 Metadata: title : Episode 1: What is DIY? - Part A Chapter #0:1: start 139.000000, end 717.000000 Metadata: title : Episode 1: What is DIY? - Part B Chapter #0:2: start 717.000000, end 1325.000000 Metadata: title : Episode 1: What is DIY? - Part C Chapter #0:3: start 1325.000000, end 1415.000000 Metadata: title : ED Chapter #0:4: start 1415.000000, end 1420.107000 Metadata: title : Chapter 02 Stream #0:0(jpn): Video: h264 (High), yuv420p(progressive), 1920x1080 [SAR 1:1 DAR 16:9], 23.98 fps, 23.98 tbr, 1k tbn (default) Metadata: title : [Erai-Raws] BPS : 7991018 DURATION : 00:23:40.044708333 NUMBER_OF_FRAMES: 34047 NUMBER_OF_BYTES : 1418449769 _STATISTICS_WRITING_APP: mkvpropedit v70.0.0.79 ('Caught A Lite Sneeze') 64-bit _STATISTICS_WRITING_DATE_UTC: 2022-12-23 16:13:42 _STATISTICS_TAGS: BPS DURATION NUMBER_OF_FRAMES NUMBER_OF_BYTES Stream #0:1(jpn): Audio: aac (LC), 44100 Hz, stereo, fltp (default) Metadata: title : [Erai-Raws] BPS : 128000 DURATION : 00:23:40.083000000 NUMBER_OF_FRAMES: 61158 NUMBER_OF_BYTES : 22721376 _STATISTICS_WRITING_APP: mkvpropedit v70.0.0.79 ('Caught A Lite Sneeze') 64-bit _STATISTICS_WRITING_DATE_UTC: 2022-12-23 16:13:42 _STATISTICS_TAGS: BPS DURATION NUMBER_OF_FRAMES NUMBER_OF_BYTES Stream #0:2(eng): Subtitle: ass (default) Metadata: title : [MiraiAnime] BPS : 2046 DURATION : 00:23:26.270000000 NUMBER_OF_FRAMES: 2561 NUMBER_OF_BYTES : 359706 _STATISTICS_WRITING_APP: mkvpropedit v70.0.0.79 ('Caught A Lite Sneeze') 64-bit _STATISTICS_WRITING_DATE_UTC: 2022-12-23 16:13:42 _STATISTICS_TAGS: BPS DURATION NUMBER_OF_FRAMES NUMBER_OF_BYTES Stream #0:3: Attachment: ttf Metadata: filename : DFHeiA.ttc mimetype : application/x-truetype-font Stream #0:4: Attachment: ttf Metadata: filename : Blogger_Sans_Medium.ttf mimetype : application/x-truetype-font Stream #0:5: Attachment: ttf Metadata: filename : Iê×Ñ_80S_ExtraBold.0.COGDB1NJ.ttf mimetype : application/x-truetype-font Stream #0:6: Attachment: ttf Metadata: filename : KG_Turning_Tables.ttf mimetype : application/x-truetype-font Stream #0:7: Attachment: ttf Metadata: filename : ARRBD_ECL.ttf mimetype : application/x-truetype-font Stream #0:8: Attachment: ttf Metadata: filename : Blogger_Sans_Light.ttf mimetype : application/x-truetype-font Stream #0:9: Attachment: ttf Metadata: filename : times.ttf mimetype : application/x-truetype-font Stream #0:10: Attachment: ttf Metadata: filename : syunka2.ttf mimetype : application/x-truetype-font Stream #0:11: Attachment: ttf Metadata: filename : hapole_pencil.ttf mimetype : application/x-truetype-font Stream #0:12: Attachment: ttf Metadata: filename : arial.ttf mimetype : application/x-truetype-font Stream #0:13: Attachment: ttf Metadata: filename : LT_italic.ttf mimetype : application/x-truetype-font Stream #0:14: Attachment: ttf Metadata: filename : Kruede_W90_Bold.ttf mimetype : application/x-truetype-font ``` ___ #### **Thank you [Erai-Raws](https://nyaa.si/user/erai-raws) and [Anime Chap](https://nyaa.si/user/AnimeChap) for making this possible!** ___ If you find anything that seems out of the ordinary, just post a comment or in my discord and I'll take a look at it.

File list

  • Do It Yourself!! (2022) [Season 1] [WEBDL 1080p AVC AAC] [ENG-SUB]
    • Season 1
      • Do It Yourself!! (2022) - S01E01 - What Is DIY.mkv (1.4 GiB)
      • Do It Yourself!! (2022) - S01E02 - Does DIY Mean Doing Stuff With Somebody.mkv (1.3 GiB)
      • Do It Yourself!! (2022) - S01E03 - Does DIY Mean Why Did You Suddenly Show Up.mkv (1.3 GiB)
      • Do It Yourself!! (2022) - S01E04 - DIY Means You'll Find It Possible to Feel Comfortable Anywhere.mkv (1.4 GiB)
      • Do It Yourself!! (2022) - S01E05 - DIY Means Finding a Place to Belong... Finally.mkv (1.4 GiB)
      • Do It Yourself!! (2022) - S01E06 - DIY Means Dull, Unexciting Items Come in Handy.mkv (1.4 GiB)
      • Do It Yourself!! (2022) - S01E07 - DIY Means You Can Do Things Inside If It's Hot and Muggy Out.mkv (1.4 GiB)
      • Do It Yourself!! (2022) - S01E08 - DIY Means... You Can't Do It No, I Absolutely Can.mkv (1.4 GiB)
      • Do It Yourself!! (2022) - S01E09 - Does DIY Mean a Shocking Surprise How Unexpected! It's Really Unexpected.mkv (1.4 GiB)
      • Do It Yourself!! (2022) - S01E10 - DIY Means... Rock Bottom Impossible With Courage and Drive, Anything Is Possible.mkv (1.4 GiB)
      • Do It Yourself!! (2022) - S01E11 - DIY Means Do It Yourself.mkv (1.4 GiB)
      • Do It Yourself!! (2022) - S01E12 - DIY Means Friendship, Always and Forever.mkv (1.4 GiB)
> When it comes to the video I’d suggest you to just wait for the Blu-Ray and hope the studio wasn’t as high as they were doing this. Just while watching I was able to spot different encoding errors, so I didn’t even bother encoding anything at all. Pizza is best for now.
great subs, thanks for your work <3 ![](https://i.imgur.com/IX3oOFy.png)