Eden.of.the.East.Movie.II.Paradise.Lost.2010.1080p.BluRay.10-Bit.Dual-Audio.FLAC5.1.x265-YURASUKA (Higashi no Eden Gekijouban II)

Category:
Date:
2022-12-24 04:11 UTC
Submitter:
Seeders:
8
Information:
Leechers:
0
File size:
3.0 GiB
Completed:
480
Info hash:
b454e127ecafc793d8690f611df5d5c34cc099ed
Eden of the East Movie II: Paradise Lost / Higashi no Eden: Gekijouban II (2010) Video Source: STG-3 BDRemux (JP) Audio + Subtitles: [CTR](https://nyaa.si/view/1102569) (Coalgirls) [Encode Comparison](https://slow.pics/c/5J83lume) ``` Complete name : Eden.of.the.East.Movie.II.Paradise.Lost.2010.1080p.BluRay.10-Bit.Dual-Audio.FLAC5.1.x265-YURASUKA.mkv Format : Matroska Format version : Version 4 File size : 3.04 GiB Duration : 1 h 32 min Overall bit rate mode : Variable Overall bit rate : 4 724 kb/s Movie name : Eden of the East Movie II: Paradise Lost (2010) YURASUKA Encoded date : UTC 2022-12-24 03:12:53 Writing application : mkvmerge v72.0.0 ('Minuano (Six-eight)') 64-bit Writing library : libebml v1.4.4 + libmatroska v1.7.1 Attachments : AbsaraSans-Medium.otf / Brianne_s_hand.ttf / CALIBRI.TTF / KozGoPro-Bold.ttf / LT_70142.ttf / NOTEPAD.TTF / VAGRoundedStd-Light.otf Video ID : 1 Format : HEVC Format/Info : High Efficiency Video Coding Format profile : Main 10@L5@Main Codec ID : V_MPEGH/ISO/HEVC Duration : 1 h 32 min Bit rate : 2 326 kb/s Width : 1 920 pixels Height : 1 080 pixels Display aspect ratio : 16:9 Frame rate mode : Constant Frame rate : 23.976 (24000/1001) FPS Color space : YUV Chroma subsampling : 4:2:0 Bit depth : 10 bits Bits/(Pixel*Frame) : 0.047 Stream size : 1.50 GiB (49%) Title : YURASUKA 1080p x265 Writing library : x265 3.5:[Linux][GCC 11.2.0][64 bit] 10bit Encoding settings : cpuid=1111039 / frame-threads=4 / numa-pools=24 / wpp / no-pmode / no-pme / no-psnr / no-ssim / log-level=2 / input-csp=1 / input-res=1920x1080 / interlace=0 / total-frames=0 / level-idc=0 / high-tier=1 / uhd-bd=0 / ref=6 / no-allow-non-conformance / no-repeat-headers / annexb / no-aud / no-hrd / info / hash=0 / no-temporal-layers / open-gop / min-keyint=1 / keyint=360 / gop-lookahead=0 / bframes=16 / b-adapt=2 / b-pyramid / bframe-bias=0 / rc-lookahead=72 / lookahead-slices=4 / scenecut=40 / hist-scenecut=0 / radl=0 / no-splice / no-intra-refresh / ctu=32 / min-cu-size=8 / rect / amp / max-tu-size=32 / tu-inter-depth=4 / tu-intra-depth=4 / limit-tu=0 / rdoq-level=2 / dynamic-rd=4.00 / no-ssim-rd / signhide / tskip / nr-intra=0 / nr-inter=0 / no-constrained-intra / strong-intra-smoothing / max-merge=3 / limit-refs=3 / limit-modes / me=3 / subme=4 / merange=57 / temporal-mvp / no-frame-dup / no-hme / weightp / weightb / no-analyze-src-pics / deblock=0:0 / no-sao / no-sao-non-deblock / rd=4 / selective-sao=0 / no-early-skip / rskip / no-fast-intra / no-tskip-fast / no-cu-lossless / b-intra / no-splitrd-skip / rdpenalty=0 / psy-rd=2.00 / psy-rdoq=2.00 / no-rd-refine / no-lossless / cbqpoffs=0 / crqpoffs=0 / rc=crf / crf=16.0 / qcomp=0.72 / qpstep=4 / stats-write=0 / stats-read=0 / vbv-maxrate=20000 / vbv-bufsize=20000 / vbv-init=0.9 / min-vbv-fullness=50.0 / max-vbv-fullness=80.0 / crf-max=0.0 / crf-min=0.0 / ipratio=1.40 / pbratio=1.30 / aq-mode=3 / aq-strength=0.85 / cutree / zone-count=0 / no-strict-cbr / qg-size=32 / no-rc-grain / qpmax=69 / qpmin=0 / no-const-vbv / sar=0 / overscan=0 / videoformat=5 / range=0 / colorprim=1 / transfer=1 / colormatrix=1 / chromaloc=0 / display-window=0 / cll=0,0 / min-luma=0 / max-luma=1023 / log2-max-poc-lsb=8 / vui-timing-info / vui-hrd-info / slices=1 / no-opt-qp-pps / no-opt-ref-list-length-pps / no-multi-pass-opt-rps / scenecut-bias=0.05 / hist-threshold=0.03 / no-opt-cu-delta-qp / no-aq-motion / no-hdr10 / no-hdr10-opt / no-dhdr10-opt / no-idr-recovery-sei / analysis-reuse-level=0 / analysis-save-reuse-level=0 / analysis-load-reuse-level=0 / scale-factor=0 / refine-intra=0 / refine-inter=0 / refine-mv=1 / refine-ctu-distortion=0 / no-limit-sao / ctu-info=0 / no-lowpass-dct / refine-analysis-type=0 / copy-pic=1 / max-ausize-factor=1.0 / no-dynamic-refine / no-single-sei / no-hevc-aq / no-svt / no-field / qp-adaptation-range=1.00 / scenecut-aware-qp=0conformance-window-offsets / right=0 / bottom=0 / decoder-max-rate=0 / no-vbv-live-multi-pass Language : Japanese Default : Yes Forced : No Color range : Limited Color primaries : BT.709 Transfer characteristics : BT.709 Matrix coefficients : BT.709 Audio #1 ID : 2 Format : FLAC Format/Info : Free Lossless Audio Codec Codec ID : A_FLAC Duration : 1 h 32 min Bit rate mode : Variable Bit rate : 1 171 kb/s Channel(s) : 6 channels Channel layout : L R C LFE Ls Rs Sampling rate : 48.0 kHz Frame rate : 11.719 FPS (4096 SPF) Bit depth : 16 bits Compression mode : Lossless Delay relative to video : 68 ms Stream size : 772 MiB (25%) Title : English FLAC 5.1 Writing library : libFLAC 1.2.1 (UTC 2007-09-17) Language : English Default : Yes Forced : No Audio #2 ID : 3 Format : FLAC Format/Info : Free Lossless Audio Codec Codec ID : A_FLAC Duration : 1 h 32 min Bit rate mode : Variable Bit rate : 1 218 kb/s Channel(s) : 6 channels Channel layout : L R C LFE Ls Rs Sampling rate : 48.0 kHz Frame rate : 10.417 FPS (4608 SPF) Bit depth : 16 bits Compression mode : Lossless Stream size : 802 MiB (26%) Title : Japanese FLAC 5.1 Writing library : Lavf59.27.100 Language : Japanese Default : No Forced : No Text #1 ID : 4 Format : ASS Codec ID : S_TEXT/ASS Codec ID/Info : Advanced Sub Station Alpha Duration : 1 h 27 min Bit rate : 17 b/s Frame rate : 0.020 FPS Count of elements : 107 Compression mode : Lossless Stream size : 11.3 KiB (0%) Title : Signs [Coalgirls] Language : English Default : Yes Forced : Yes Text #2 ID : 5 Format : ASS Codec ID : S_TEXT/ASS Codec ID/Info : Advanced Sub Station Alpha Duration : 1 h 30 min Bit rate : 102 b/s Frame rate : 0.183 FPS Count of elements : 999 Compression mode : Lossless Stream size : 68.5 KiB (0%) Title : Full Subtitles [Coalgirls] Language : English Default : No Forced : No ``` Dead end for a sucker that’s a sucker like me. 私のようなカモの行き止まりです。

File list

Holy crap! The complete Eden of the East series is a very nice upload. I wonder: is there still any advantage, in 2020 decade to be very strict, when using characters for a file name or folder name, to restrain to authorized ASCII characters and avoiding blank spaces, brackets and punctuation. I thought this was something from the past, like early 2010 decade. Is there still an advantage of it for some people today?
Merry Christmas, and thanks for finishing it all!